<?xml version="1.0" standalone="no"?>
<!DOCTYPE svg PUBLIC "-//W3C//DTD SVG 1.1//EN" "http://www.w3.org/Graphics/SVG/1.1/DTD/svg11.dtd" >
<svg xmlns="http://www.w3.org/2000/svg" xmlns:xlink="http://www.w3.org/1999/xlink" version="1.1">
<metadata>
Created by FontForge 20201107 at Thu Mar 21 17:43:29 2019
 By Jimmy Wärting

</metadata>
<defs>
<font id="HelveticaNowDisplay-XBd" horiz-adv-x="0" >
  <font-face 
    font-family="HelveticaNowDisplay"
    font-weight="800"
    font-stretch="normal"
    units-per-em="1000"
    panose-1="2 11 9 4 3 2 2 2 2 4"
    ascent="875"
    descent="-125"
    x-height="516"
    cap-height="712"
    bbox="-368 -342 1285 1049"
    underline-thickness="50"
    underline-position="-100"
    stemh="151"
    stemv="178"
    unicode-range="U+000D-FEFF"
  />
<missing-glyph horiz-adv-x="662" 
d="M54 0v712h554v-712h-554zM201 130h260v452h-260v-452z" />
    <glyph glyph-name="fi" unicode="fi" horiz-adv-x="613" 
d="M88 546c0 91 48 170 186 170c24 0 52 -2 74 -4v-116h-42c-44 0 -62 -20 -62 -55v-25h102v-114h-102v-402h-156v402h-77v114h77v30zM564 707v-132h-149v132h149zM411 516h156v-516h-156v516z" />
    <glyph glyph-name="fl" unicode="fl" horiz-adv-x="607" 
d="M88 546c0 91 48 170 186 170c24 0 52 -2 74 -4v-116h-42c-44 0 -62 -20 -62 -55v-25h102v-114h-102v-402h-156v402h-77v114h77v30zM405 712h156v-712h-156v712z" />
    <glyph glyph-name=".notdef" horiz-adv-x="662" 
d="M54 0v712h554v-712h-554zM201 130h260v452h-260v-452z" />
    <glyph glyph-name="NULL" 
 />
    <glyph glyph-name="NULL" 
 />
    <glyph glyph-name="CR" unicode="&#xd;" horiz-adv-x="233" 
 />
    <glyph glyph-name="space" unicode=" " horiz-adv-x="233" 
 />
    <glyph glyph-name="exclam" unicode="!" horiz-adv-x="244" 
d="M80 238l-42 300v174h169v-174l-43 -300h-84zM34 0v172h176v-172h-176z" />
    <glyph glyph-name="quotedbl" unicode="&#x22;" horiz-adv-x="509" 
d="M81 377l-27 335h169l-26 -335h-116zM313 377l-27 335h169l-27 -335h-115z" />
    <glyph glyph-name="numbersign" unicode="#" horiz-adv-x="710" 
d="M661 418h-89l-25 -124h89l-25 -126h-90l-34 -168h-140l34 168h-130l-34 -168h-140l34 168h-88l25 126h89l25 124h-88l26 127h88l34 167h140l-34 -167h130l34 167h140l-34 -167h89zM407 294l25 124h-130l-25 -124h130z" />
    <glyph glyph-name="dollar" unicode="$" horiz-adv-x="650" 
d="M633 209c0 -141 -106 -216 -270 -224v-101h-73v101c-177 13 -270 106 -271 249h164c2 -79 44 -107 107 -115v172l-18 3c-150 26 -238 94 -238 223c0 116 85 204 256 211v100h73v-102c160 -14 241 -97 246 -230h-160c-3 53 -27 86 -86 96v-162l24 -4
c171 -31 246 -96 246 -217zM206 524c0 -42 24 -63 84 -79v150c-57 -6 -84 -31 -84 -71zM363 117c63 6 95 34 95 81c0 42 -23 62 -95 78v-159z" />
    <glyph glyph-name="percent" unicode="%" horiz-adv-x="909" 
d="M198 290c-119 0 -178 77 -178 215c0 139 59 216 178 216s178 -77 178 -216c0 -138 -59 -215 -178 -215zM215 0l380 712h99l-380 -712h-99zM198 381c42 0 65 29 65 124c0 96 -23 125 -65 125c-41 0 -65 -28 -65 -125c0 -96 24 -124 65 -124zM711 -9
c-120 0 -179 77 -179 215c0 139 59 216 179 216c118 0 178 -77 178 -216c0 -138 -60 -215 -178 -215zM711 82c41 0 64 29 64 124c0 96 -23 125 -64 125c-42 0 -66 -28 -66 -125c0 -96 24 -124 66 -124z" />
    <glyph glyph-name="ampersand" unicode="&#x26;" horiz-adv-x="717" 
d="M717 0h-192l-40 44c-57 -38 -126 -60 -198 -60c-169 0 -264 90 -264 214c0 96 53 156 148 200l-1 1c-49 56 -70 96 -70 149c0 100 78 180 216 180c130 0 216 -69 216 -173c0 -75 -49 -142 -149 -187l110 -121c15 33 23 69 25 107h140c-3 -79 -29 -151 -71 -210zM324 608
c-41 0 -69 -26 -69 -60c0 -27 15 -54 51 -94l5 -5c55 28 82 62 82 98c0 34 -28 61 -69 61zM302 113c37 0 70 10 99 27l-154 172c-39 -24 -61 -55 -61 -99c0 -53 42 -100 116 -100z" />
    <glyph glyph-name="quotesingle" unicode="'" horiz-adv-x="277" 
d="M81 377l-27 335h169l-26 -335h-116z" />
    <glyph glyph-name="parenleft" unicode="(" horiz-adv-x="300" 
d="M154 -196c-77 152 -115 293 -115 489c0 200 38 342 115 493h143c-70 -148 -99 -299 -99 -493c0 -183 28 -332 99 -489h-143z" />
    <glyph glyph-name="parenright" unicode=")" horiz-adv-x="300" 
d="M3 -196c71 157 99 306 99 489c0 194 -29 345 -99 493h143c77 -151 115 -293 115 -493c0 -196 -38 -337 -115 -489h-143z" />
    <glyph glyph-name="asterisk" unicode="*" horiz-adv-x="453" 
d="M147 308l-79 62l82 110l-132 42l33 94l125 -41v137h101v-137l125 41l33 -94l-132 -42l82 -110l-79 -62l-80 106z" />
    <glyph glyph-name="plus" unicode="+" horiz-adv-x="528" 
d="M499 422v-131h-164v-165h-143v165h-163v131h163v165h143v-165h164z" />
    <glyph glyph-name="comma" unicode="," horiz-adv-x="244" 
d="M34 172h176v-185c0 -107 -55 -155 -154 -156l-22 -1v86h23c35 1 52 21 52 67v17h-75v172z" />
    <glyph glyph-name="hyphen" unicode="-" horiz-adv-x="360" 
d="M29 215v131h302v-131h-302z" />
    <glyph glyph-name="period" unicode="." horiz-adv-x="244" 
d="M34 0v172h176v-172h-176z" />
    <glyph glyph-name="slash" unicode="/" horiz-adv-x="406" 
d="M0 0l255 712h151l-255 -712h-151z" />
    <glyph glyph-name="zero" unicode="0" horiz-adv-x="677" 
d="M339 -16c-201 0 -304 136 -304 372s103 372 304 372s303 -136 303 -372s-102 -372 -303 -372zM339 124c82 0 127 63 127 232s-46 232 -127 232c-82 0 -128 -63 -128 -232s46 -232 128 -232z" />
    <glyph glyph-name="one" unicode="1" horiz-adv-x="416" 
d="M362 712v-712h-169v445h-166v115l16 1c93 6 161 38 186 151h133z" />
    <glyph glyph-name="two" unicode="2" horiz-adv-x="618" 
d="M223 140h360v-140h-550l4 63c5 98 24 222 209 294l56 25c77 32 107 64 107 117c0 57 -36 89 -100 89c-70 0 -107 -35 -107 -114h-161c-1 150 82 254 272 254c168 0 264 -92 264 -213c0 -128 -73 -191 -205 -251l-59 -28c-57 -27 -85 -48 -90 -96z" />
    <glyph glyph-name="three" unicode="3" horiz-adv-x="641" 
d="M491 380c74 -26 123 -87 123 -173c0 -130 -103 -223 -282 -223c-202 0 -298 103 -298 265h162c1 -91 46 -125 130 -125c73 0 114 35 114 91c0 67 -44 96 -120 96h-53v119h56c71 0 109 26 109 85c0 49 -37 81 -104 81c-69 0 -108 -26 -113 -98h-162c5 148 94 230 276 230
c164 0 264 -76 264 -197c0 -68 -42 -123 -102 -151z" />
    <glyph glyph-name="four" unicode="4" horiz-adv-x="660" 
d="M633 294v-139h-93v-155h-169v155h-339v159l322 398h186v-418h93zM376 545l-203 -251h203v251z" />
    <glyph glyph-name="five" unicode="5" horiz-adv-x="620" 
d="M345 470c169 0 246 -115 246 -234c0 -157 -120 -252 -279 -252c-148 0 -264 82 -277 223h159c11 -56 55 -92 118 -92c74 0 120 51 120 121s-46 121 -120 121c-56 0 -93 -28 -110 -63h-156l70 418h441v-140h-311l-27 -145c33 27 76 43 126 43z" />
    <glyph glyph-name="six" unicode="6" horiz-adv-x="637" 
d="M365 470c162 0 241 -115 241 -234c0 -157 -118 -252 -277 -252c-69 0 -130 18 -176 51c-82 60 -118 166 -118 306c0 251 104 387 296 387c145 0 246 -73 265 -202h-154c-12 55 -50 79 -109 79c-88 0 -136 -55 -143 -214c38 50 98 79 175 79zM329 115c73 0 118 51 118 117
s-45 117 -118 117s-119 -50 -119 -117s46 -117 119 -117z" />
    <glyph glyph-name="seven" unicode="7" horiz-adv-x="533" 
d="M13 712h507v-136c-146 -146 -217 -302 -219 -576h-175c2 230 95 434 227 572h-340v140z" />
    <glyph glyph-name="eight" unicode="8" horiz-adv-x="628" 
d="M489 375c83 -32 118 -93 118 -173c0 -128 -108 -218 -292 -218s-292 90 -292 218c0 80 35 141 118 173c-60 35 -89 89 -89 154c0 123 103 199 263 199s263 -76 263 -199c0 -65 -29 -119 -89 -154zM315 608c-70 0 -112 -34 -112 -91c0 -55 40 -90 112 -90s112 35 112 90
c0 57 -42 91 -112 91zM315 113c84 0 127 40 127 103c0 65 -45 102 -127 102s-127 -37 -127 -102c0 -63 43 -103 127 -103z" />
    <glyph glyph-name="nine" unicode="9" horiz-adv-x="637" 
d="M484 674c82 -60 117 -165 117 -305c0 -244 -96 -387 -290 -387c-149 0 -251 73 -271 202h155c12 -55 52 -79 114 -79c89 0 131 61 138 214c-37 -50 -98 -79 -175 -79c-162 0 -242 115 -242 234c0 156 119 252 278 252c69 0 130 -18 176 -52zM308 361c72 0 118 50 118 117
s-46 117 -118 117c-73 0 -119 -51 -119 -117s46 -117 119 -117z" />
    <glyph glyph-name="colon" unicode=":" horiz-adv-x="244" 
d="M34 319v171h176v-171h-176zM34 0v172h176v-172h-176z" />
    <glyph glyph-name="semicolon" unicode=";" horiz-adv-x="244" 
d="M34 490h176v-172h-176v172zM34 0v172h176v-185c0 -107 -55 -155 -154 -156l-22 -1v86h23c35 1 52 21 52 67v17h-75z" />
    <glyph glyph-name="less" unicode="&#x3c;" horiz-adv-x="528" 
d="M499 461l-56 -21c-91 -31 -176 -58 -264 -84c88 -26 173 -53 264 -84l56 -21v-152l-470 181v152l470 182v-153z" />
    <glyph glyph-name="equal" unicode="=" horiz-adv-x="528" 
d="M29 393v124h470v-124h-470zM29 195v124h470v-124h-470z" />
    <glyph glyph-name="greater" unicode="&#x3e;" horiz-adv-x="528" 
d="M29 614l470 -182v-152l-470 -181v152l55 21c92 31 176 58 264 84c-88 26 -172 53 -264 84l-55 21v153z" />
    <glyph glyph-name="question" unicode="?" horiz-adv-x="547" 
d="M189 237c0 71 5 92 24 125c16 29 45 50 74 69c38 25 73 49 73 92c0 46 -25 75 -86 75c-72 0 -97 -31 -98 -107h-158c-1 159 91 237 261 237c150 0 249 -67 249 -188c0 -69 -35 -125 -103 -173c-30 -22 -58 -42 -71 -61c-14 -18 -15 -35 -15 -69h-150zM176 0v172h176v-172
h-176z" />
    <glyph glyph-name="at" unicode="@" horiz-adv-x="922" 
d="M463 728c257 0 435 -159 435 -382c0 -154 -75 -268 -206 -268c-72 0 -123 33 -140 87c-29 -58 -82 -83 -139 -83c-98 0 -177 71 -177 224c0 145 82 222 178 222c53 0 90 -19 117 -62v50h137v-265c0 -40 15 -58 43 -58c52 0 74 68 74 149c0 167 -114 284 -325 284
c-198 0 -323 -130 -323 -321c0 -209 136 -328 332 -328c75 0 145 12 207 38v-100c-65 -25 -136 -35 -208 -35c-269 0 -444 169 -444 425c0 239 170 423 439 423zM455 192c55 0 78 38 78 114c0 71 -23 112 -79 112c-57 0 -80 -41 -80 -112c0 -76 25 -114 81 -114z" />
    <glyph glyph-name="A" unicode="A" horiz-adv-x="732" 
d="M552 0l-42 124h-296l-41 -124h-173l262 712h201l268 -712h-179zM261 265h201l-41 122c-19 53 -40 118 -60 180c-20 -62 -41 -127 -59 -180z" />
    <glyph glyph-name="B" unicode="B" horiz-adv-x="677" 
d="M536 379c81 -30 124 -101 124 -172c0 -124 -81 -207 -258 -207h-348v712h338c176 0 239 -89 239 -182c0 -71 -36 -123 -95 -151zM381 577h-158v-152h158c53 0 82 31 82 78c0 44 -29 74 -82 74zM392 135c60 0 94 29 94 81c0 55 -35 81 -94 81h-169v-162h169z" />
    <glyph glyph-name="C" unicode="C" horiz-adv-x="741" 
d="M379 -16c-212 0 -355 143 -355 372s138 372 355 372c169 0 309 -93 337 -271h-171c-22 84 -86 125 -166 125c-115 0 -179 -85 -179 -226c0 -142 64 -226 179 -226c84 0 154 49 170 144h169c-22 -190 -164 -290 -339 -290z" />
    <glyph glyph-name="D" unicode="D" horiz-adv-x="734" 
d="M346 712c244 0 364 -143 364 -356s-120 -356 -364 -356h-292v712h292zM343 143c116 0 191 65 191 213s-75 213 -191 213h-120v-426h120z" />
    <glyph glyph-name="E" unicode="E" horiz-adv-x="623" 
d="M598 561h-375v-129h341v-142h-341v-139h374v-151h-543v712h544v-151z" />
    <glyph glyph-name="F" unicode="F" horiz-adv-x="590" 
d="M577 561h-354v-129h327v-143h-327v-289h-169v712h523v-151z" />
    <glyph glyph-name="G" unicode="G" horiz-adv-x="778" 
d="M406 397h328v-397h-118l-20 94c-48 -73 -132 -110 -231 -110c-206 0 -341 146 -341 372s136 372 361 372c185 0 317 -98 340 -256h-173c-20 68 -78 110 -166 110c-116 0 -186 -85 -186 -226s72 -226 194 -226c87 0 158 53 170 135h-158v132z" />
    <glyph glyph-name="H" unicode="H" horiz-adv-x="732" 
d="M509 712h169v-712h-169v288h-286v-288h-169v712h169v-272h286v272z" />
    <glyph glyph-name="I" unicode="I" horiz-adv-x="277" 
d="M54 0v712h169v-712h-169z" />
    <glyph glyph-name="J" unicode="J" horiz-adv-x="569" 
d="M272 -16c-156 0 -249 88 -249 228v45h161v-45c0 -55 33 -86 86 -86s86 31 86 86v500h169v-500c0 -128 -87 -228 -253 -228z" />
    <glyph glyph-name="K" unicode="K" horiz-adv-x="725" 
d="M724 712l-286 -291l286 -421h-200l-205 308l-96 -95v-213h-169v712h169v-308l295 308h206z" />
    <glyph glyph-name="L" unicode="L" horiz-adv-x="562" 
d="M223 151h326v-151h-495v712h169v-561z" />
    <glyph glyph-name="M" unicode="M" horiz-adv-x="898" 
d="M591 712h253v-712h-161v209c0 114 1 222 6 344c-15 -54 -29 -101 -48 -162l-123 -391h-138l-123 391c-19 61 -33 107 -47 161c4 -122 5 -229 5 -343v-209h-161v712h253l94 -306c17 -57 34 -119 49 -177c15 59 32 123 48 180z" />
    <glyph glyph-name="N" unicode="N" horiz-adv-x="732" 
d="M517 712h161v-712h-182l-174 284c-40 66 -78 129 -111 194c3 -116 4 -220 4 -329v-149h-161v712h182l174 -284c34 -56 78 -130 111 -196c-3 117 -4 221 -4 331v149z" />
    <glyph glyph-name="O" unicode="O" horiz-adv-x="778" 
d="M389 -16c-218 0 -365 147 -365 372s147 372 365 372c217 0 365 -147 365 -372s-148 -372 -365 -372zM389 131c114 0 190 84 190 225s-76 225 -190 225s-189 -84 -189 -225s75 -225 189 -225z" />
    <glyph glyph-name="P" unicode="P" horiz-adv-x="665" 
d="M378 712c168 0 263 -96 263 -240s-95 -240 -263 -240h-155v-232h-169v712h324zM367 375c65 0 105 33 105 97c0 63 -40 97 -105 97h-144v-194h144z" />
    <glyph glyph-name="Q" unicode="Q" horiz-adv-x="778" 
d="M754 356c0 -109 -35 -200 -96 -265l79 -86l-83 -78l-87 96c-52 -25 -112 -39 -178 -39c-218 0 -365 147 -365 372s147 372 365 372c217 0 365 -147 365 -372zM389 131c25 0 48 4 69 12l-75 83l83 77l79 -87c22 36 34 84 34 140c0 141 -76 225 -190 225
s-189 -84 -189 -225s75 -225 189 -225z" />
    <glyph glyph-name="R" unicode="R" horiz-adv-x="677" 
d="M640 77c1 -30 8 -58 20 -77h-174c-11 20 -16 45 -17 78l-3 80c-3 86 -41 104 -105 104h-138v-262h-169v712h337c179 0 258 -91 258 -206c0 -75 -37 -138 -115 -169c82 -27 98 -85 101 -160zM223 389h149c65 0 103 33 103 95c0 61 -38 93 -106 93h-146v-188z" />
    <glyph glyph-name="S" unicode="S" horiz-adv-x="650" 
d="M331 -16c-203 0 -311 96 -312 250h164c2 -97 66 -118 154 -118c80 0 121 29 121 82c0 48 -30 67 -128 85l-58 11c-150 26 -238 94 -238 223c0 121 92 211 278 211c194 0 291 -86 297 -232h-160c-4 66 -39 100 -134 100c-74 0 -109 -27 -109 -72c0 -50 33 -70 121 -87
l60 -11c171 -31 246 -96 246 -217c0 -150 -120 -225 -302 -225z" />
    <glyph glyph-name="T" unicode="T" horiz-adv-x="632" 
d="M620 712v-151h-219v-561h-170v561h-218v151h607z" />
    <glyph glyph-name="U" unicode="U" horiz-adv-x="707" 
d="M353 -16c-179 0 -309 98 -309 287v441h169v-443c0 -93 54 -139 140 -139c87 0 141 46 141 139v443h169v-441c0 -189 -124 -287 -310 -287z" />
    <glyph glyph-name="V" unicode="V" horiz-adv-x="706" 
d="M532 712h174l-249 -712h-200l-257 712h181l104 -313c24 -75 50 -161 73 -250c22 89 47 175 71 250z" />
    <glyph glyph-name="W" unicode="W" horiz-adv-x="993" 
d="M817 712h176l-195 -712h-189l-59 252c-20 84 -38 171 -53 257c-16 -86 -34 -173 -53 -257l-60 -252h-189l-195 712h177l59 -244c22 -92 44 -188 63 -279c17 91 36 187 56 279l57 244h169l57 -244c21 -92 40 -188 56 -281c19 93 42 189 63 281z" />
    <glyph glyph-name="X" unicode="X" horiz-adv-x="689" 
d="M443 365l246 -365h-196l-59 89c-32 48 -62 94 -92 142c-29 -48 -60 -95 -91 -142l-59 -89h-192l247 362l-232 350h195l54 -83c29 -44 56 -89 83 -132c27 44 54 88 83 132l55 83h189z" />
    <glyph glyph-name="Y" unicode="Y" horiz-adv-x="700" 
d="M514 712h186l-264 -435v-277h-169v277l-267 435h191l62 -103c34 -60 69 -119 102 -177c32 59 66 121 99 178z" />
    <glyph glyph-name="Z" unicode="Z" horiz-adv-x="645" 
d="M450 151h170v-151h-595v133l238 280c44 51 87 100 131 150c-69 -1 -137 -2 -206 -2h-151v151h577v-132l-239 -281c-44 -51 -87 -100 -132 -150c69 1 138 2 207 2z" />
    <glyph glyph-name="bracketleft" unicode="[" horiz-adv-x="366" 
d="M54 -196v982h299v-130h-151v-722h151v-130h-299z" />
    <glyph glyph-name="backslash" unicode="\" horiz-adv-x="406" 
d="M255 0l-255 712h151l255 -712h-151z" />
    <glyph glyph-name="bracketright" unicode="]" horiz-adv-x="366" 
d="M13 -196v130h151v722h-151v130h299v-982h-299z" />
    <glyph glyph-name="asciicircum" unicode="^" horiz-adv-x="428" 
d="M287 712l139 -287h-136l-57 125c-7 17 -13 32 -19 48c-6 -16 -12 -31 -19 -48l-57 -125h-137l140 287h146z" />
    <glyph glyph-name="underscore" unicode="_" horiz-adv-x="491" 
d="M-1 -170v114h493v-114h-493z" />
    <glyph glyph-name="grave" unicode="`" horiz-adv-x="400" 
d="M205 575l-134 144h170l88 -144h-124z" />
    <glyph glyph-name="a" unicode="a" horiz-adv-x="559" 
d="M542 0h-157c-7 13 -12 35 -13 58c-33 -44 -89 -70 -165 -70c-108 0 -188 55 -188 158c0 89 53 148 202 161l81 7c44 5 67 18 67 51c0 31 -17 52 -79 52c-61 0 -86 -15 -91 -68h-155c8 114 81 179 247 179c162 0 230 -61 230 -159v-274c0 -38 7 -75 21 -95zM254 93
c60 0 115 29 115 110v38c-11 -12 -28 -17 -52 -20l-64 -7c-53 -6 -75 -26 -75 -62s27 -59 76 -59z" />
    <glyph glyph-name="b" unicode="b" horiz-adv-x="602" 
d="M353 528c140 0 225 -106 225 -270s-85 -270 -225 -270c-73 0 -123 31 -156 81v-69h-152v712h156v-259c33 47 82 75 152 75zM310 113c69 0 110 51 110 149s-41 141 -110 141c-70 0 -111 -47 -111 -145s41 -145 111 -145z" />
    <glyph glyph-name="c" unicode="c" horiz-adv-x="558" 
d="M289 -12c-161 0 -265 106 -265 270s103 270 265 270c142 0 238 -79 252 -206h-155c-9 55 -47 79 -97 79c-66 0 -107 -44 -107 -143s42 -142 107 -142c52 0 93 26 100 87h155c-11 -133 -112 -215 -255 -215z" />
    <glyph glyph-name="d" unicode="d" horiz-adv-x="601" 
d="M400 712h156v-712h-152v67c-33 -49 -83 -79 -155 -79c-140 0 -225 106 -225 270s85 270 225 270c69 0 118 -28 151 -74v258zM292 113c70 0 111 47 111 145s-41 145 -111 145c-69 0 -110 -51 -110 -149s41 -141 110 -141z" />
    <glyph glyph-name="e" unicode="e" horiz-adv-x="584" 
d="M556 243v-31h-382c11 -74 57 -109 118 -109c52 0 86 21 104 58h148c-28 -109 -128 -173 -252 -173c-160 0 -268 106 -268 270c0 163 105 270 266 270s266 -111 266 -285zM288 413c-57 0 -101 -30 -113 -102h228c-11 64 -52 102 -115 102z" />
    <glyph glyph-name="f" unicode="f" horiz-adv-x="369" 
d="M306 596c-44 0 -62 -20 -62 -55v-25h102v-114h-102v-402h-156v402h-77v114h77v30c0 91 48 170 186 170c24 0 52 -2 74 -4v-116h-42z" />
    <glyph glyph-name="g" unicode="g" horiz-adv-x="601" 
d="M404 516h152v-500c0 -139 -94 -224 -264 -224c-161 0 -244 78 -250 189h154c4 -48 37 -72 99 -72c70 0 105 38 105 101v74c-31 -45 -78 -73 -148 -73c-137 0 -228 107 -228 259c0 153 88 258 225 258c74 0 124 -31 155 -80v68zM292 136c70 0 111 47 111 134
s-41 133 -111 133c-69 0 -110 -50 -110 -135c0 -86 41 -132 110 -132z" />
    <glyph glyph-name="h" unicode="h" horiz-adv-x="583" 
d="M359 528c102 0 179 -62 179 -190v-338h-156v307c0 57 -25 88 -83 88c-48 0 -98 -31 -98 -107v-288h-156v712h156v-264c34 46 86 80 158 80z" />
    <glyph glyph-name="i" unicode="i" horiz-adv-x="247" 
d="M49 575v132h149v-132h-149zM45 0v516h156v-516h-156z" />
    <glyph glyph-name="j" unicode="j" horiz-adv-x="247" 
d="M49 575v132h149v-132h-149zM28 -198c-22 0 -36 0 -51 1v119h19c30 0 49 7 49 46v548h156v-566c0 -106 -54 -148 -173 -148z" />
    <glyph glyph-name="k" unicode="k" horiz-adv-x="580" 
d="M401 0l-133 213l-70 -72v-141h-153v712h153v-400l191 204h179l-194 -200l205 -316h-178z" />
    <glyph glyph-name="l" unicode="l" horiz-adv-x="247" 
d="M45 0v712h156v-712h-156z" />
    <glyph glyph-name="m" unicode="m" horiz-adv-x="891" 
d="M665 528c111 0 181 -69 181 -193v-335h-156v308c0 56 -22 87 -77 87c-47 0 -89 -31 -89 -110v-285h-156v308c0 56 -22 87 -77 87c-47 0 -90 -31 -90 -110v-285h-156v516h152v-73c33 49 79 85 147 85c75 0 132 -33 160 -93c35 52 90 93 161 93z" />
    <glyph glyph-name="n" unicode="n" horiz-adv-x="583" 
d="M359 528c102 0 179 -62 179 -190v-338h-156v307c0 57 -25 88 -83 88c-48 0 -98 -31 -98 -107v-288h-156v516h152v-73c34 48 87 85 162 85z" />
    <glyph glyph-name="o" unicode="o" horiz-adv-x="589" 
d="M295 -12c-165 0 -271 106 -271 270s106 270 271 270c164 0 270 -106 270 -270s-106 -270 -270 -270zM295 113c69 0 112 47 112 145s-43 145 -112 145c-70 0 -113 -47 -113 -145s43 -145 113 -145z" />
    <glyph glyph-name="p" unicode="p" horiz-adv-x="602" 
d="M353 528c140 0 225 -106 225 -270s-85 -270 -225 -270c-70 0 -119 28 -152 75v-259h-156v712h152v-69c33 50 83 81 156 81zM310 113c69 0 110 51 110 149s-41 141 -110 141c-70 0 -111 -47 -111 -145s41 -145 111 -145z" />
    <glyph glyph-name="q" unicode="q" horiz-adv-x="601" 
d="M404 516h152v-712h-156v258c-33 -46 -82 -74 -151 -74c-140 0 -225 106 -225 270s85 270 225 270c72 0 122 -30 155 -79v67zM292 113c70 0 111 47 111 145s-41 145 -111 145c-69 0 -110 -51 -110 -149s41 -141 110 -141z" />
    <glyph glyph-name="r" unicode="r" horiz-adv-x="399" 
d="M344 524c12 0 23 -1 34 -2v-142h-40c-87 0 -137 -43 -137 -140v-240h-156v516h152v-96c22 64 70 104 147 104z" />
    <glyph glyph-name="s" unicode="s" horiz-adv-x="520" 
d="M262 -15c-158 0 -239 51 -248 179h152c6 -56 34 -75 99 -75c63 0 87 19 87 50s-19 46 -89 57l-67 11c-109 17 -174 66 -174 158c0 103 81 163 232 163c174 0 235 -76 240 -177h-145c-2 56 -39 73 -95 73s-79 -19 -79 -49c0 -31 25 -44 75 -52l77 -11
c122 -19 181 -68 181 -160c0 -107 -91 -167 -246 -167z" />
    <glyph glyph-name="t" unicode="t" horiz-adv-x="364" 
d="M343 402h-99v-241c0 -38 19 -45 59 -45h40v-116c-24 -3 -49 -4 -72 -4c-129 0 -183 42 -183 148v258h-77v114h77v153h156v-153h99v-114z" />
    <glyph glyph-name="u" unicode="u" horiz-adv-x="583" 
d="M382 516h156v-516h-152v73c-34 -48 -86 -85 -162 -85c-102 0 -179 62 -179 190v338h156v-307c0 -57 25 -88 83 -88c48 0 98 31 98 107v288z" />
    <glyph glyph-name="v" unicode="v" horiz-adv-x="557" 
d="M395 516h160l-184 -516h-186l-184 516h168l27 -78c28 -99 58 -204 86 -305c28 101 58 206 86 305z" />
    <glyph glyph-name="w" unicode="w" horiz-adv-x="858" 
d="M689 516h167l-168 -516h-164l-57 194c-14 46 -27 93 -39 139c-11 -46 -24 -93 -37 -139l-57 -194h-164l-169 516h168l48 -166c17 -58 33 -116 48 -174c14 58 29 116 45 175l47 165h144l47 -165c16 -59 31 -117 45 -175c15 58 31 116 48 174z" />
    <glyph glyph-name="x" unicode="x" horiz-adv-x="552" 
d="M363 266l188 -266h-177l-13 19c-30 43 -58 87 -86 130c-28 -43 -57 -87 -87 -130l-13 -19h-174l190 264l-180 252h178l19 -27c24 -36 48 -72 71 -108c22 36 46 73 70 108l19 27h173z" />
    <glyph glyph-name="y" unicode="y" horiz-adv-x="551" 
d="M389 516h161l-187 -536c-45 -130 -104 -177 -257 -177c-30 0 -45 1 -61 2v120h50c58 0 78 33 78 72c0 29 -12 66 -24 100l-148 419h168l23 -73c30 -101 60 -207 88 -325c28 119 57 224 86 324z" />
    <glyph glyph-name="z" unicode="z" horiz-adv-x="507" 
d="M327 116h153v-116h-452v98l183 226c21 26 42 51 64 77c-35 -1 -69 -1 -104 -1h-141v116h440v-98l-183 -226c-21 -26 -42 -51 -64 -77c35 1 69 1 104 1z" />
    <glyph glyph-name="braceleft" unicode="{" horiz-adv-x="376" 
d="M299 -196c-119 0 -188 54 -188 177v186c0 37 -18 61 -82 63v130c64 2 82 26 82 63v186c0 123 69 177 188 177h64v-127h-44c-51 0 -64 -20 -64 -65v-205c0 -53 -28 -90 -108 -93v-2c80 -3 108 -39 108 -92v-207c0 -44 13 -64 64 -64h44v-127h-64z" />
    <glyph glyph-name="bar" unicode="|" horiz-adv-x="237" 
d="M54 -202v999h129v-999h-129z" />
    <glyph glyph-name="braceright" unicode="}" horiz-adv-x="376" 
d="M13 -196v127h44c51 0 64 20 64 64v207c0 53 27 89 107 92v2c-80 3 -107 40 -107 93v205c0 45 -13 65 -64 65h-44v127h64c118 0 188 -54 188 -177v-186c0 -37 18 -61 82 -63v-130c-64 -2 -82 -26 -82 -63v-186c0 -123 -70 -177 -188 -177h-64z" />
    <glyph glyph-name="asciitilde" unicode="~" horiz-adv-x="528" 
d="M356 267c-41 0 -77 17 -107 32c-23 12 -44 23 -64 23c-26 0 -43 -11 -49 -54h-107c2 109 51 179 143 179c41 0 76 -17 107 -33c24 -12 45 -23 64 -23c26 0 43 12 49 54h107c-2 -108 -50 -178 -143 -178z" />
    <glyph glyph-name="Aacute" unicode="&#xc1;" horiz-adv-x="732" 
d="M559 899l-134 -144h-124l88 144h170zM552 0l-42 124h-296l-41 -124h-173l262 712h201l268 -712h-179zM261 265h201l-41 122c-19 53 -40 118 -60 180c-20 -62 -41 -127 -59 -180z" />
    <glyph glyph-name="Abreve" unicode="&#x102;" horiz-adv-x="732" 
d="M362 750c-94 0 -162 56 -178 149h113c5 -36 28 -57 65 -57c36 0 60 21 65 57h113c-17 -93 -84 -149 -178 -149zM552 0l-42 124h-296l-41 -124h-173l262 712h201l268 -712h-179zM261 265h201l-41 122c-19 53 -40 118 -60 180c-20 -62 -41 -127 -59 -180z" />
    <glyph glyph-name="Acircumflex" unicode="&#xc2;" horiz-adv-x="732" 
d="M362 824l-66 -69h-140l118 144h173l119 -144h-139zM552 0l-42 124h-296l-41 -124h-173l262 712h201l268 -712h-179zM261 265h201l-41 122c-19 53 -40 118 -60 180c-20 -62 -41 -127 -59 -180z" />
    <glyph glyph-name="Adieresis" unicode="&#xc4;" horiz-adv-x="732" 
d="M332 887v-132h-150v132h150zM542 887v-132h-150v132h150zM552 0l-42 124h-296l-41 -124h-173l262 712h201l268 -712h-179zM261 265h201l-41 122c-19 53 -40 118 -60 180c-20 -62 -41 -127 -59 -180z" />
    <glyph glyph-name="Agrave" unicode="&#xc0;" horiz-adv-x="732" 
d="M423 755h-124l-134 144h170zM552 0l-42 124h-296l-41 -124h-173l262 712h201l268 -712h-179zM261 265h201l-41 122c-19 53 -40 118 -60 180c-20 -62 -41 -127 -59 -180z" />
    <glyph glyph-name="Amacron" unicode="&#x100;" horiz-adv-x="732" 
d="M530 857v-102h-336v102h336zM552 0l-42 124h-296l-41 -124h-173l262 712h201l268 -712h-179zM261 265h201l-41 122c-19 53 -40 118 -60 180c-20 -62 -41 -127 -59 -180z" />
    <glyph glyph-name="Aogonek" unicode="&#x104;" horiz-adv-x="732" 
d="M634 -88c0 -30 29 -36 50 -36c16 0 32 3 47 7v-82c-17 -5 -44 -9 -72 -9c-88 0 -140 38 -140 97c0 37 28 84 102 111h-69l-42 124h-296l-41 -124h-173l262 712h201l268 -712c-80 -36 -97 -66 -97 -88zM261 265h201l-41 122c-19 53 -40 118 -60 180
c-20 -62 -41 -127 -59 -180z" />
    <glyph glyph-name="Aring" unicode="&#xc5;" horiz-adv-x="732" 
d="M552 0l-42 124h-296l-41 -124h-173l247 671c-24 25 -39 60 -39 99c0 86 68 146 154 146s154 -60 154 -146c0 -39 -14 -73 -38 -98l253 -672h-179zM362 828c-33 0 -59 -25 -59 -58s26 -58 59 -58s59 25 59 58s-26 58 -59 58zM261 265h201l-41 122c-19 53 -40 118 -60 180
c-20 -62 -41 -127 -59 -180z" />
    <glyph glyph-name="Aringacute" unicode="&#x1fa;" horiz-adv-x="732" 
d="M552 0l-42 124h-296l-41 -124h-173l247 671c-24 25 -39 60 -39 99c0 69 44 122 106 139l75 123h170l-123 -133c47 -23 80 -70 80 -129c0 -39 -14 -72 -38 -97l253 -673h-179zM303 770c0 -33 26 -58 59 -58s59 25 59 58s-26 58 -59 58s-59 -25 -59 -58zM261 265h201
l-41 122c-19 53 -40 118 -60 180c-20 -62 -41 -127 -59 -180z" />
    <glyph glyph-name="Atilde" unicode="&#xc3;" horiz-adv-x="732" 
d="M297 792c-18 0 -27 -11 -28 -37h-95c0 99 48 138 107 138c34 0 63 -11 86 -20c21 -9 40 -16 60 -16c18 0 27 10 28 36h95c0 -98 -48 -138 -107 -138c-32 0 -60 11 -87 21c-20 8 -41 16 -59 16zM552 0l-42 124h-296l-41 -124h-173l262 712h201l268 -712h-179zM261 265h201
l-41 122c-19 53 -40 118 -60 180c-20 -62 -41 -127 -59 -180z" />
    <glyph glyph-name="AE" unicode="&#xc6;" horiz-adv-x="1060" 
d="M1035 561h-338v-129h304v-142h-304v-139h337v-151h-502v153h-283l-74 -153h-175l349 712h686v-151zM317 294h215v277h-81z" />
    <glyph glyph-name="AEacute" unicode="&#x1fc;" horiz-adv-x="1060" 
d="M881 899l-134 -144h-124l88 144h170zM1035 561h-338v-129h304v-142h-304v-139h337v-151h-502v153h-283l-74 -153h-175l349 712h686v-151zM317 294h215v277h-81z" />
    <glyph glyph-name="Cacute" unicode="&#x106;" horiz-adv-x="741" 
d="M319 771l88 144h170l-134 -144h-124zM379 -16c-212 0 -355 143 -355 372s138 372 355 372c169 0 309 -93 337 -271h-171c-22 84 -86 125 -166 125c-115 0 -179 -85 -179 -226c0 -142 64 -226 179 -226c84 0 154 49 170 144h169c-22 -190 -164 -290 -339 -290z" />
    <glyph glyph-name="Ccaron" unicode="&#x10c;" horiz-adv-x="741" 
d="M466 771h-173l-119 144h139l66 -69l65 69h140zM549 274h169c-22 -190 -164 -290 -339 -290c-212 0 -355 143 -355 372s138 372 355 372c169 0 309 -93 337 -271h-171c-22 84 -86 125 -166 125c-115 0 -179 -85 -179 -226c0 -142 64 -226 179 -226c84 0 154 49 170 144z
" />
    <glyph glyph-name="Ccedilla" unicode="&#xc7;" horiz-adv-x="741" 
d="M718 274c-20 -174 -141 -273 -297 -288l-39 -46c6 1 11 1 16 1c67 0 105 -34 105 -78c0 -55 -44 -97 -154 -97c-22 0 -52 3 -70 7v56c19 -3 34 -4 56 -4c42 0 61 16 61 40s-18 36 -57 36c-7 0 -13 0 -24 -1v38l37 47c-197 12 -328 152 -328 371c0 229 138 372 355 372
c169 0 309 -93 337 -271h-171c-22 84 -86 125 -166 125c-115 0 -179 -85 -179 -226c0 -142 64 -226 179 -226c84 0 154 49 170 144h169z" />
    <glyph glyph-name="Ccircumflex" unicode="&#x108;" horiz-adv-x="741" 
d="M380 840l-66 -69h-140l118 144h173l119 -144h-139zM549 274h169c-22 -190 -164 -290 -339 -290c-212 0 -355 143 -355 372s138 372 355 372c169 0 309 -93 337 -271h-171c-22 84 -86 125 -166 125c-115 0 -179 -85 -179 -226c0 -142 64 -226 179 -226
c84 0 154 49 170 144z" />
    <glyph glyph-name="Cdotaccent" unicode="&#x10a;" horiz-adv-x="741" 
d="M303 771v132h150v-132h-150zM379 -16c-212 0 -355 143 -355 372s138 372 355 372c169 0 309 -93 337 -271h-171c-22 84 -86 125 -166 125c-115 0 -179 -85 -179 -226c0 -142 64 -226 179 -226c84 0 154 49 170 144h169c-22 -190 -164 -290 -339 -290z" />
    <glyph glyph-name="Eth" unicode="&#xd0;" horiz-adv-x="756" 
d="M368 712c244 0 364 -143 364 -356s-120 -356 -364 -356h-292v320h-76v87h76v305h292zM365 143c116 0 191 65 191 213s-75 213 -191 213h-120v-162h153v-87h-153v-177h120z" />
    <glyph glyph-name="Dcaron" unicode="&#x10e;" horiz-adv-x="734" 
d="M440 755h-173l-119 144h139l66 -69l65 69h140zM346 712c244 0 364 -143 364 -356s-120 -356 -364 -356h-292v712h292zM343 143c116 0 191 65 191 213s-75 213 -191 213h-120v-426h120z" />
    <glyph glyph-name="Dcroat" unicode="&#x110;" horiz-adv-x="756" 
d="M368 712c244 0 364 -143 364 -356s-120 -356 -364 -356h-292v320h-76v87h76v305h292zM365 143c116 0 191 65 191 213s-75 213 -191 213h-120v-162h153v-87h-153v-177h120z" />
    <glyph glyph-name="Eacute" unicode="&#xc9;" horiz-adv-x="623" 
d="M523 899l-134 -144h-124l88 144h170zM598 561h-375v-129h341v-142h-341v-139h374v-151h-543v712h544v-151z" />
    <glyph glyph-name="Ebreve" unicode="&#x114;" horiz-adv-x="623" 
d="M326 750c-94 0 -162 56 -178 149h113c5 -36 28 -57 65 -57c36 0 60 21 65 57h113c-17 -93 -84 -149 -178 -149zM598 561h-375v-129h341v-142h-341v-139h374v-151h-543v712h544v-151z" />
    <glyph glyph-name="Ecaron" unicode="&#x11a;" horiz-adv-x="623" 
d="M412 755h-173l-119 144h139l66 -69l65 69h140zM598 561h-375v-129h341v-142h-341v-139h374v-151h-543v712h544v-151z" />
    <glyph glyph-name="Ecircumflex" unicode="&#xca;" horiz-adv-x="623" 
d="M326 824l-66 -69h-140l118 144h173l119 -144h-139zM598 561h-375v-129h341v-142h-341v-139h374v-151h-543v712h544v-151z" />
    <glyph glyph-name="Edieresis" unicode="&#xcb;" horiz-adv-x="623" 
d="M296 887v-132h-150v132h150zM506 887v-132h-150v132h150zM598 561h-375v-129h341v-142h-341v-139h374v-151h-543v712h544v-151z" />
    <glyph glyph-name="Edotaccent" unicode="&#x116;" horiz-adv-x="623" 
d="M400 887v-132h-150v132h150zM598 561h-375v-129h341v-142h-341v-139h374v-151h-543v712h544v-151z" />
    <glyph glyph-name="Egrave" unicode="&#xc8;" horiz-adv-x="623" 
d="M387 755h-124l-134 144h170zM598 561h-375v-129h341v-142h-341v-139h374v-151h-543v712h544v-151z" />
    <glyph glyph-name="Emacron" unicode="&#x112;" horiz-adv-x="623" 
d="M494 857v-102h-336v102h336zM598 561h-375v-129h341v-142h-341v-139h374v-151h-543v712h544v-151z" />
    <glyph glyph-name="Eogonek" unicode="&#x118;" horiz-adv-x="623" 
d="M598 561h-375v-129h341v-142h-341v-139h374v-151c-80 -36 -97 -66 -97 -88c0 -30 29 -36 50 -36c16 0 32 3 47 7v-82c-17 -5 -44 -9 -72 -9c-88 0 -140 38 -140 97c0 37 28 84 102 111h-433v712h544v-151z" />
    <glyph glyph-name="uni01F4" unicode="&#x1f4;" horiz-adv-x="778" 
d="M582 915l-134 -144h-124l88 144h170zM406 397h328v-397h-118l-20 94c-48 -73 -132 -110 -231 -110c-206 0 -341 146 -341 372s136 372 361 372c185 0 317 -98 340 -256h-173c-20 68 -78 110 -166 110c-116 0 -186 -85 -186 -226s72 -226 194 -226c87 0 158 53 170 135
h-158v132z" />
    <glyph glyph-name="Gbreve" unicode="&#x11e;" horiz-adv-x="778" 
d="M385 766c-94 0 -162 56 -178 149h113c5 -36 28 -57 65 -57c36 0 60 21 65 57h113c-17 -93 -84 -149 -178 -149zM406 397h328v-397h-118l-20 94c-48 -73 -132 -110 -231 -110c-206 0 -341 146 -341 372s136 372 361 372c185 0 317 -98 340 -256h-173
c-20 68 -78 110 -166 110c-116 0 -186 -85 -186 -226s72 -226 194 -226c87 0 158 53 170 135h-158v132z" />
    <glyph glyph-name="Gcircumflex" unicode="&#x11c;" horiz-adv-x="778" 
d="M385 840l-66 -69h-140l118 144h173l119 -144h-139zM406 397h328v-397h-118l-20 94c-48 -73 -132 -110 -231 -110c-206 0 -341 146 -341 372s136 372 361 372c185 0 317 -98 340 -256h-173c-20 68 -78 110 -166 110c-116 0 -186 -85 -186 -226s72 -226 194 -226
c87 0 158 53 170 135h-158v132z" />
    <glyph glyph-name="uni0122" unicode="&#x122;" horiz-adv-x="778" 
d="M406 397h328v-397h-118l-20 94c-48 -73 -132 -110 -231 -110c-206 0 -341 146 -341 372s136 372 361 372c185 0 317 -98 340 -256h-173c-20 68 -78 110 -166 110c-116 0 -186 -85 -186 -226s72 -226 194 -226c87 0 158 53 170 135h-158v132zM315 -168v110h138v-117
c0 -64 -37 -92 -114 -93h-24v53l23 1c24 0 37 11 37 37v9h-60z" />
    <glyph glyph-name="Gdotaccent" unicode="&#x120;" horiz-adv-x="778" 
d="M459 903v-132h-150v132h150zM406 397h328v-397h-118l-20 94c-48 -73 -132 -110 -231 -110c-206 0 -341 146 -341 372s136 372 361 372c185 0 317 -98 340 -256h-173c-20 68 -78 110 -166 110c-116 0 -186 -85 -186 -226s72 -226 194 -226c87 0 158 53 170 135h-158v132z
" />
    <glyph glyph-name="Hbar" unicode="&#x126;" horiz-adv-x="778" 
d="M778 615v-87h-78v-528h-168v288h-286v-288h-169v528h-77v87h77v97h169v-97h286v97h168v-97h78zM532 440v88h-286v-88h286z" />
    <glyph glyph-name="Hcircumflex" unicode="&#x124;" horiz-adv-x="732" 
d="M367 824l-66 -69h-140l118 144h173l119 -144h-139zM509 712h169v-712h-169v288h-286v-288h-169v712h169v-272h286v272z" />
    <glyph glyph-name="IJ" unicode="&#x132;" horiz-adv-x="846" 
d="M54 0v712h169v-712h-169zM549 -16c-156 0 -249 88 -249 228v45h161v-45c0 -55 33 -86 86 -86s86 31 86 86v500h169v-500c0 -128 -87 -228 -253 -228z" />
    <glyph glyph-name="Iacute" unicode="&#xcd;" horiz-adv-x="277" 
d="M195 755h-111l51 144h155zM54 0v712h169v-712h-169z" />
    <glyph glyph-name="Ibreve" unicode="&#x12c;" horiz-adv-x="277" 
d="M138 750c-85 0 -149 58 -159 146h106c2 -33 21 -54 53 -54s51 21 53 54h106c-11 -88 -74 -146 -159 -146zM54 0v712h169v-712h-169z" />
    <glyph glyph-name="Icircumflex" unicode="&#xce;" horiz-adv-x="277" 
d="M138 823l-50 -68h-130l97 144h164l99 -144h-131zM54 0v712h169v-712h-169z" />
    <glyph glyph-name="Idieresis" unicode="&#xcf;" horiz-adv-x="277" 
d="M-23 755v132h135v-132h-135zM165 755v132h134v-132h-134zM54 0v712h169v-712h-169z" />
    <glyph glyph-name="Idotaccent" unicode="&#x130;" horiz-adv-x="277" 
d="M63 755v132h150v-132h-150zM54 0v712h169v-712h-169z" />
    <glyph glyph-name="Igrave" unicode="&#xcc;" horiz-adv-x="277" 
d="M83 755l-95 144h155l51 -144h-111zM54 0v712h169v-712h-169z" />
    <glyph glyph-name="Imacron" unicode="&#x12a;" horiz-adv-x="277" 
d="M-4 755v102h284v-102h-284zM54 0v712h169v-712h-169z" />
    <glyph glyph-name="Iogonek" unicode="&#x12e;" horiz-adv-x="277" 
d="M188 -124c13 0 26 2 39 6v-81c-15 -5 -37 -9 -60 -9c-78 0 -124 37 -124 97c0 37 23 85 83 111h-72v712h169v-712c-68 -36 -78 -67 -78 -87c0 -32 26 -37 43 -37z" />
    <glyph glyph-name="Itilde" unicode="&#x128;" horiz-adv-x="277" 
d="M-11 755c0 99 38 138 85 138c26 0 49 -11 68 -21c18 -9 32 -16 47 -16c14 0 22 11 22 37h76c0 -99 -38 -138 -85 -138c-26 0 -49 11 -70 21c-17 8 -31 15 -45 15s-22 -11 -22 -36h-76zM54 0v712h169v-712h-169z" />
    <glyph glyph-name="Jcircumflex" unicode="&#x134;" horiz-adv-x="569" 
d="M440 823l-50 -68h-130l97 144h164l99 -144h-131zM356 212v500h169v-500c0 -128 -87 -228 -253 -228c-156 0 -249 88 -249 228v45h161v-45c0 -55 33 -86 86 -86s86 31 86 86z" />
    <glyph glyph-name="uni0136" unicode="&#x136;" horiz-adv-x="725" 
d="M724 712l-286 -291l286 -421h-200l-205 308l-96 -95v-213h-169v712h169v-308l295 308h206zM303 -153v110h138v-117c0 -64 -37 -92 -114 -93h-24v53l23 1c24 0 37 11 37 37v9h-60z" />
    <glyph glyph-name="Lacute" unicode="&#x139;" horiz-adv-x="562" 
d="M336 899l-134 -144h-124l88 144h170zM223 151h326v-151h-495v712h169v-561z" />
    <glyph glyph-name="Lcaron" unicode="&#x13d;" horiz-adv-x="562" 
d="M223 151h326v-151h-495v712h169v-561zM463 712l-76 -166h-103l26 166h153z" />
    <glyph glyph-name="uni013B" unicode="&#x13b;" horiz-adv-x="562" 
d="M223 151h326v-151h-495v712h169v-561zM234 -153v110h138v-117c0 -64 -37 -92 -114 -93h-24v53l23 1c24 0 37 11 37 37v9h-60z" />
    <glyph glyph-name="Ldot" unicode="&#x13f;" horiz-adv-x="562" 
d="M223 151h326v-151h-495v712h169v-561zM508 462v-172h-176v172h176z" />
    <glyph glyph-name="Lslash" unicode="&#x141;" horiz-adv-x="584" 
d="M245 151h326v-151h-495v305l-76 -31v96l76 31v311h169v-241l176 73v-96l-176 -73v-224z" />
    <glyph glyph-name="Nacute" unicode="&#x143;" horiz-adv-x="732" 
d="M564 899l-134 -144h-124l88 144h170zM517 712h161v-712h-182l-174 284c-40 66 -78 129 -111 194c3 -116 4 -220 4 -329v-149h-161v712h182l174 -284c34 -56 78 -130 111 -196c-3 117 -4 221 -4 331v149z" />
    <glyph glyph-name="Ncaron" unicode="&#x147;" horiz-adv-x="732" 
d="M453 755h-173l-119 144h139l66 -69l65 69h140zM517 712h161v-712h-182l-174 284c-40 66 -78 129 -111 194c3 -116 4 -220 4 -329v-149h-161v712h182l174 -284c34 -56 78 -130 111 -196c-3 117 -4 221 -4 331v149z" />
    <glyph glyph-name="uni0145" unicode="&#x145;" horiz-adv-x="732" 
d="M517 712h161v-712h-182l-174 284c-40 66 -78 129 -111 194c3 -116 4 -220 4 -329v-149h-161v712h182l174 -284c34 -56 78 -130 111 -196c-3 117 -4 221 -4 331v149zM298 -153v110h138v-117c0 -64 -37 -92 -114 -93h-24v53l23 1c24 0 37 11 37 37v9h-60z" />
    <glyph glyph-name="Eng" unicode="&#x14a;" horiz-adv-x="732" 
d="M517 712h161v-727c0 -103 -54 -185 -203 -185c-23 0 -51 1 -73 4v118c12 -1 25 -2 41 -2c55 0 79 24 79 70v11l-197 302c-41 64 -81 128 -115 194c4 -122 5 -225 5 -348v-149h-161v712h182l177 -274c32 -50 74 -118 108 -179c-3 106 -4 202 -4 304v149z" />
    <glyph glyph-name="Ntilde" unicode="&#xd1;" horiz-adv-x="732" 
d="M301 792c-18 0 -27 -11 -28 -37h-95c0 99 48 138 107 138c34 0 63 -11 86 -20c21 -9 40 -16 60 -16c18 0 27 10 28 36h95c0 -98 -48 -138 -107 -138c-32 0 -60 11 -87 21c-20 8 -41 16 -59 16zM517 712h161v-712h-182l-174 284c-40 66 -78 129 -111 194
c3 -116 4 -220 4 -329v-149h-161v712h182l174 -284c34 -56 78 -130 111 -196c-3 117 -4 221 -4 331v149z" />
    <glyph glyph-name="Oacute" unicode="&#xd3;" horiz-adv-x="778" 
d="M328 771l88 144h170l-134 -144h-124zM389 -16c-218 0 -365 147 -365 372s147 372 365 372c217 0 365 -147 365 -372s-148 -372 -365 -372zM389 131c114 0 190 84 190 225s-76 225 -190 225s-189 -84 -189 -225s75 -225 189 -225z" />
    <glyph glyph-name="Obreve" unicode="&#x14e;" horiz-adv-x="778" 
d="M389 766c-94 0 -162 56 -178 149h113c5 -36 28 -57 65 -57c36 0 60 21 65 57h113c-17 -93 -84 -149 -178 -149zM389 -16c-218 0 -365 147 -365 372s147 372 365 372c217 0 365 -147 365 -372s-148 -372 -365 -372zM389 131c114 0 190 84 190 225s-76 225 -190 225
s-189 -84 -189 -225s75 -225 189 -225z" />
    <glyph glyph-name="Ocircumflex" unicode="&#xd4;" horiz-adv-x="778" 
d="M389 840l-66 -69h-140l118 144h173l119 -144h-139zM389 728c217 0 365 -147 365 -372s-148 -372 -365 -372c-218 0 -365 147 -365 372s147 372 365 372zM389 131c114 0 190 84 190 225s-76 225 -190 225s-189 -84 -189 -225s75 -225 189 -225z" />
    <glyph glyph-name="Odieresis" unicode="&#xd6;" horiz-adv-x="778" 
d="M209 771v132h150v-132h-150zM419 771v132h150v-132h-150zM389 -16c-218 0 -365 147 -365 372s147 372 365 372c217 0 365 -147 365 -372s-148 -372 -365 -372zM389 131c114 0 190 84 190 225s-76 225 -190 225s-189 -84 -189 -225s75 -225 189 -225z" />
    <glyph glyph-name="Ograve" unicode="&#xd2;" horiz-adv-x="778" 
d="M326 771l-134 144h170l88 -144h-124zM389 -16c-218 0 -365 147 -365 372s147 372 365 372c217 0 365 -147 365 -372s-148 -372 -365 -372zM389 131c114 0 190 84 190 225s-76 225 -190 225s-189 -84 -189 -225s75 -225 189 -225z" />
    <glyph glyph-name="Ohungarumlaut" unicode="&#x150;" horiz-adv-x="778" 
d="M216 771l88 144h171l-140 -144h-119zM439 771l89 144h170l-139 -144h-120zM389 -16c-218 0 -365 147 -365 372s147 372 365 372c217 0 365 -147 365 -372s-148 -372 -365 -372zM389 131c114 0 190 84 190 225s-76 225 -190 225s-189 -84 -189 -225s75 -225 189 -225z" />
    <glyph glyph-name="Omacron" unicode="&#x14c;" horiz-adv-x="778" 
d="M221 771v102h336v-102h-336zM389 -16c-218 0 -365 147 -365 372s147 372 365 372c217 0 365 -147 365 -372s-148 -372 -365 -372zM389 131c114 0 190 84 190 225s-76 225 -190 225s-189 -84 -189 -225s75 -225 189 -225z" />
    <glyph glyph-name="Oslash" unicode="&#xd8;" horiz-adv-x="778" 
d="M756 702l-85 -96c53 -63 83 -149 83 -250c0 -225 -148 -372 -365 -372c-84 0 -157 22 -215 61l-85 -96l-68 61l85 96c-52 64 -82 149 -82 250c0 225 147 372 365 372c83 0 156 -22 214 -61l85 96zM200 356c0 -46 8 -86 23 -118l275 310c-30 22 -67 33 -109 33
c-114 0 -189 -84 -189 -225zM579 356c0 46 -8 87 -23 120l-276 -312c30 -21 67 -33 109 -33c114 0 190 84 190 225z" />
    <glyph glyph-name="Oslashacute" unicode="&#x1fe;" horiz-adv-x="778" 
d="M586 915l-134 -144h-124l88 144h170zM756 702l-85 -96c53 -63 83 -149 83 -250c0 -225 -148 -372 -365 -372c-84 0 -157 22 -215 61l-85 -96l-68 61l85 96c-52 64 -82 149 -82 250c0 225 147 372 365 372c83 0 156 -22 214 -61l85 96zM200 356c0 -46 8 -86 23 -118
l275 310c-30 22 -67 33 -109 33c-114 0 -189 -84 -189 -225zM579 356c0 46 -8 87 -23 120l-276 -312c30 -21 67 -33 109 -33c114 0 190 84 190 225z" />
    <glyph glyph-name="Otilde" unicode="&#xd5;" horiz-adv-x="778" 
d="M201 771c0 99 48 138 107 138c34 0 63 -11 86 -20c21 -9 40 -16 60 -16c18 0 27 10 28 36h95c0 -98 -48 -138 -107 -138c-32 0 -60 11 -87 21c-20 8 -41 16 -59 16s-27 -11 -28 -37h-95zM389 -16c-218 0 -365 147 -365 372s147 372 365 372c217 0 365 -147 365 -372
s-148 -372 -365 -372zM389 131c114 0 190 84 190 225s-76 225 -190 225s-189 -84 -189 -225s75 -225 189 -225z" />
    <glyph glyph-name="OE" unicode="&#x152;" horiz-adv-x="1148" 
d="M1123 561h-376v-130h341v-142h-341v-139h374v-151h-542v63c-51 -50 -122 -78 -211 -78c-199 0 -344 147 -344 372s145 372 344 372c89 0 160 -28 211 -78v61h544v-150zM389 131c114 0 190 84 190 225s-76 225 -190 225s-189 -84 -189 -225s75 -225 189 -225z" />
    <glyph glyph-name="Thorn" unicode="&#xde;" horiz-adv-x="665" 
d="M378 596c168 0 263 -96 263 -240s-95 -240 -263 -240h-155v-116h-169v712h169v-116h155zM367 259c65 0 105 33 105 97s-40 97 -105 97h-144v-194h144z" />
    <glyph glyph-name="Racute" unicode="&#x154;" horiz-adv-x="677" 
d="M536 899l-134 -144h-124l88 144h170zM640 77c1 -30 8 -58 20 -77h-174c-11 20 -16 45 -17 78l-3 80c-3 86 -41 104 -105 104h-138v-262h-169v712h337c179 0 258 -91 258 -206c0 -75 -37 -138 -115 -169c82 -27 98 -85 101 -160zM223 389h149c65 0 103 33 103 95
c0 61 -38 93 -106 93h-146v-188z" />
    <glyph glyph-name="Rcaron" unicode="&#x158;" horiz-adv-x="677" 
d="M424 755h-173l-119 144h139l66 -69l65 69h140zM640 77c1 -30 8 -58 20 -77h-174c-11 20 -16 45 -17 78l-3 80c-3 86 -41 104 -105 104h-138v-262h-169v712h337c179 0 258 -91 258 -206c0 -75 -37 -138 -115 -169c82 -27 98 -85 101 -160zM223 389h149c65 0 103 33 103 95
c0 61 -38 93 -106 93h-146v-188z" />
    <glyph glyph-name="uni0156" unicode="&#x156;" horiz-adv-x="677" 
d="M640 77c1 -30 8 -58 20 -77h-174c-11 20 -16 45 -17 78l-3 80c-3 86 -41 104 -105 104h-138v-262h-169v712h337c179 0 258 -91 258 -206c0 -75 -37 -138 -115 -169c82 -27 98 -85 101 -160zM223 389h149c65 0 103 33 103 95c0 61 -38 93 -106 93h-146v-188zM291 -153v110
h138v-117c0 -64 -37 -92 -114 -93h-24v53l23 1c24 0 37 11 37 37v9h-60z" />
    <glyph glyph-name="Sacute" unicode="&#x15a;" horiz-adv-x="650" 
d="M250 771l88 144h170l-134 -144h-124zM331 -16c-203 0 -311 96 -312 250h164c2 -97 66 -118 154 -118c80 0 121 29 121 82c0 48 -30 67 -128 85l-58 11c-150 26 -238 94 -238 223c0 121 92 211 278 211c194 0 291 -86 297 -232h-160c-4 66 -39 100 -134 100
c-74 0 -109 -27 -109 -72c0 -50 33 -70 121 -87l60 -11c171 -31 246 -96 246 -217c0 -150 -120 -225 -302 -225z" />
    <glyph glyph-name="Scaron" unicode="&#x160;" horiz-adv-x="650" 
d="M397 771h-173l-119 144h139l66 -69l65 69h140zM387 426c171 -31 246 -96 246 -217c0 -150 -120 -225 -302 -225c-203 0 -311 96 -312 250h164c2 -97 66 -118 154 -118c80 0 121 29 121 82c0 48 -30 67 -128 85l-58 11c-150 26 -238 94 -238 223c0 121 92 211 278 211
c194 0 291 -86 297 -232h-160c-4 66 -39 100 -134 100c-74 0 -109 -27 -109 -72c0 -50 33 -70 121 -87z" />
    <glyph glyph-name="Scedilla" unicode="&#x15e;" horiz-adv-x="650" 
d="M633 209c0 -136 -98 -210 -252 -223l-39 -46c6 1 11 1 16 1c67 0 105 -34 105 -78c0 -55 -44 -97 -154 -97c-22 0 -52 3 -70 7v56c19 -3 34 -4 56 -4c42 0 61 16 61 40s-18 36 -57 36c-7 0 -13 0 -24 -1v38l36 46c-190 6 -291 101 -292 250h164c2 -97 66 -118 154 -118
c80 0 121 29 121 82c0 48 -30 67 -128 85l-58 11c-150 26 -238 94 -238 223c0 121 92 211 278 211c194 0 291 -86 297 -232h-160c-4 66 -39 100 -134 100c-74 0 -109 -27 -109 -72c0 -50 33 -70 121 -87l60 -11c171 -31 246 -96 246 -217z" />
    <glyph glyph-name="Scircumflex" unicode="&#x15c;" horiz-adv-x="650" 
d="M311 840l-66 -69h-140l118 144h173l119 -144h-139zM387 426c171 -31 246 -96 246 -217c0 -150 -120 -225 -302 -225c-203 0 -311 96 -312 250h164c2 -97 66 -118 154 -118c80 0 121 29 121 82c0 48 -30 67 -128 85l-58 11c-150 26 -238 94 -238 223c0 121 92 211 278 211
c194 0 291 -86 297 -232h-160c-4 66 -39 100 -134 100c-74 0 -109 -27 -109 -72c0 -50 33 -70 121 -87z" />
    <glyph glyph-name="uni0218" unicode="&#x218;" horiz-adv-x="650" 
d="M387 426c171 -31 246 -96 246 -217c0 -150 -120 -225 -302 -225c-203 0 -311 96 -312 250h164c2 -97 66 -118 154 -118c80 0 121 29 121 82c0 48 -30 67 -128 85l-58 11c-150 26 -238 94 -238 223c0 121 92 211 278 211c194 0 291 -86 297 -232h-160
c-4 66 -39 100 -134 100c-74 0 -109 -27 -109 -72c0 -50 33 -70 121 -87zM271 -169v110h138v-117c0 -64 -37 -92 -114 -93h-24v53l23 1c24 0 37 11 37 37v9h-60z" />
    <glyph glyph-name="uni1E9E" unicode="&#x1e9e;" horiz-adv-x="713" 
d="M522 419c112 -27 173 -100 173 -201c0 -136 -95 -224 -288 -224c-30 0 -63 2 -102 7v134c29 -3 60 -5 90 -5c84 0 127 27 127 87c0 57 -49 85 -130 85c-22 0 -43 0 -60 -1v105l146 180c-33 5 -64 6 -102 6c-131 0 -165 -63 -165 -145v-447h-167v441
c0 189 123 287 330 287c98 0 201 -9 286 -20v-124z" />
    <glyph glyph-name="uni018F" unicode="&#x18f;" horiz-adv-x="747" 
d="M364 728c223 0 359 -147 359 -372c0 -220 -139 -372 -351 -372c-219 0 -348 164 -348 381v39h524c-13 118 -76 178 -183 178c-76 0 -127 -35 -152 -93h-170c34 143 150 239 321 239zM368 129c97 0 162 57 179 166h-352c13 -98 72 -166 173 -166z" />
    <glyph glyph-name="Tbar" unicode="&#x166;" horiz-adv-x="632" 
d="M620 561h-219v-175h124v-87h-124v-299h-170v299h-123v87h123v175h-218v151h607v-151z" />
    <glyph glyph-name="Tcaron" unicode="&#x164;" horiz-adv-x="632" 
d="M403 755h-173l-119 144h139l66 -69l65 69h140zM620 712v-151h-219v-561h-170v561h-218v151h607z" />
    <glyph glyph-name="uni0162" unicode="&#x162;" horiz-adv-x="632" 
d="M401 0h-44l-38 -44c6 1 11 1 16 1c67 0 105 -34 105 -78c0 -55 -44 -97 -154 -97c-22 0 -52 3 -70 7v56c19 -3 34 -4 56 -4c42 0 61 16 61 40s-18 36 -57 36c-7 0 -13 0 -24 -1v38l36 46h-57v561h-218v151h607v-151h-219v-561z" />
    <glyph glyph-name="uni021A" unicode="&#x21a;" horiz-adv-x="632" 
d="M620 712v-151h-219v-561h-170v561h-218v151h607zM248 -153v110h138v-117c0 -64 -37 -92 -114 -93h-24v53l23 1c24 0 37 11 37 37v9h-60z" />
    <glyph glyph-name="Uacute" unicode="&#xda;" horiz-adv-x="707" 
d="M293 755l88 144h170l-134 -144h-124zM353 -16c-179 0 -309 98 -309 287v441h169v-443c0 -93 54 -139 140 -139c87 0 141 46 141 139v443h169v-441c0 -189 -124 -287 -310 -287z" />
    <glyph glyph-name="Ubreve" unicode="&#x16c;" horiz-adv-x="707" 
d="M353 750c-94 0 -162 56 -178 149h113c5 -36 28 -57 65 -57c36 0 60 21 65 57h113c-17 -93 -84 -149 -178 -149zM353 -16c-179 0 -309 98 -309 287v441h169v-443c0 -93 54 -139 140 -139c87 0 141 46 141 139v443h169v-441c0 -189 -124 -287 -310 -287z" />
    <glyph glyph-name="Ucircumflex" unicode="&#xdb;" horiz-adv-x="707" 
d="M354 824l-66 -69h-140l118 144h173l119 -144h-139zM494 712h169v-441c0 -189 -124 -287 -310 -287c-179 0 -309 98 -309 287v441h169v-443c0 -93 54 -139 140 -139c87 0 141 46 141 139v443z" />
    <glyph glyph-name="Udieresis" unicode="&#xdc;" horiz-adv-x="707" 
d="M173 755v132h150v-132h-150zM383 755v132h150v-132h-150zM353 -16c-179 0 -309 98 -309 287v441h169v-443c0 -93 54 -139 140 -139c87 0 141 46 141 139v443h169v-441c0 -189 -124 -287 -310 -287z" />
    <glyph glyph-name="Ugrave" unicode="&#xd9;" horiz-adv-x="707" 
d="M290 755l-134 144h170l88 -144h-124zM353 -16c-179 0 -309 98 -309 287v441h169v-443c0 -93 54 -139 140 -139c87 0 141 46 141 139v443h169v-441c0 -189 -124 -287 -310 -287z" />
    <glyph glyph-name="Uhungarumlaut" unicode="&#x170;" horiz-adv-x="707" 
d="M180 755l88 144h171l-140 -144h-119zM403 755l89 144h170l-139 -144h-120zM353 -16c-179 0 -309 98 -309 287v441h169v-443c0 -93 54 -139 140 -139c87 0 141 46 141 139v443h169v-441c0 -189 -124 -287 -310 -287z" />
    <glyph glyph-name="Umacron" unicode="&#x16a;" horiz-adv-x="707" 
d="M185 755v102h336v-102h-336zM353 -16c-179 0 -309 98 -309 287v441h169v-443c0 -93 54 -139 140 -139c87 0 141 46 141 139v443h169v-441c0 -189 -124 -287 -310 -287z" />
    <glyph glyph-name="Uogonek" unicode="&#x172;" horiz-adv-x="707" 
d="M494 712h169v-441c0 -145 -73 -237 -192 -271c-79 -36 -96 -66 -96 -88c0 -30 29 -36 50 -36c16 0 32 3 47 7v-82c-17 -5 -44 -9 -72 -9c-88 0 -140 38 -140 97c0 31 19 68 68 96c-166 8 -284 106 -284 286v441h169v-443c0 -93 54 -139 140 -139c87 0 141 46 141 139v443
z" />
    <glyph glyph-name="Uring" unicode="&#x16e;" horiz-adv-x="707" 
d="M495 712h168v-441c0 -189 -124 -287 -310 -287c-179 0 -309 98 -309 287v441h167c-8 17 -12 37 -12 58c0 86 69 146 154 146c86 0 154 -60 154 -146c0 -21 -4 -41 -12 -58zM353 828c-33 0 -59 -25 -59 -58s26 -58 59 -58s59 25 59 58s-26 58 -59 58zM353 130
c87 0 141 46 141 139v440c-24 -51 -77 -84 -141 -84c-62 0 -116 32 -140 82v-438c0 -93 54 -139 140 -139z" />
    <glyph glyph-name="Utilde" unicode="&#x168;" horiz-adv-x="707" 
d="M165 755c0 99 48 138 107 138c34 0 63 -11 86 -20c21 -9 40 -16 60 -16c18 0 27 10 28 36h95c0 -98 -48 -138 -107 -138c-32 0 -60 11 -87 21c-20 8 -41 16 -59 16s-27 -11 -28 -37h-95zM353 -16c-179 0 -309 98 -309 287v441h169v-443c0 -93 54 -139 140 -139
c87 0 141 46 141 139v443h169v-441c0 -189 -124 -287 -310 -287z" />
    <glyph glyph-name="Wacute" unicode="&#x1e82;" horiz-adv-x="993" 
d="M694 899l-134 -144h-124l88 144h170zM817 712h176l-195 -712h-189l-59 252c-20 84 -38 171 -53 257c-16 -86 -34 -173 -53 -257l-60 -252h-189l-195 712h177l59 -244c22 -92 44 -188 63 -279c17 91 36 187 56 279l57 244h169l57 -244c21 -92 40 -188 56 -281
c19 93 42 189 63 281z" />
    <glyph glyph-name="Wcircumflex" unicode="&#x174;" horiz-adv-x="993" 
d="M497 824l-66 -69h-140l118 144h173l119 -144h-139zM817 712h176l-195 -712h-189l-59 252c-20 84 -38 171 -53 257c-16 -86 -34 -173 -53 -257l-60 -252h-189l-195 712h177l59 -244c22 -92 44 -188 63 -279c17 91 36 187 56 279l57 244h169l57 -244
c21 -92 40 -188 56 -281c19 93 42 189 63 281z" />
    <glyph glyph-name="Wdieresis" unicode="&#x1e84;" horiz-adv-x="993" 
d="M467 887v-132h-150v132h150zM677 887v-132h-150v132h150zM817 712h176l-195 -712h-189l-59 252c-20 84 -38 171 -53 257c-16 -86 -34 -173 -53 -257l-60 -252h-189l-195 712h177l59 -244c22 -92 44 -188 63 -279c17 91 36 187 56 279l57 244h169l57 -244
c21 -92 40 -188 56 -281c19 93 42 189 63 281z" />
    <glyph glyph-name="Wgrave" unicode="&#x1e80;" horiz-adv-x="993" 
d="M558 755h-124l-134 144h170zM817 712h176l-195 -712h-189l-59 252c-20 84 -38 171 -53 257c-16 -86 -34 -173 -53 -257l-60 -252h-189l-195 712h177l59 -244c22 -92 44 -188 63 -279c17 91 36 187 56 279l57 244h169l57 -244c21 -92 40 -188 56 -281c19 93 42 189 63 281
z" />
    <glyph glyph-name="Yacute" unicode="&#xdd;" horiz-adv-x="700" 
d="M548 899l-134 -144h-124l88 144h170zM514 712h186l-264 -435v-277h-169v277l-267 435h191l62 -103c34 -60 69 -119 102 -177c32 59 66 121 99 178z" />
    <glyph glyph-name="Ycircumflex" unicode="&#x176;" horiz-adv-x="700" 
d="M350 824l-66 -69h-140l118 144h173l119 -144h-139zM514 712h186l-264 -435v-277h-169v277l-267 435h191l62 -103c34 -60 69 -119 102 -177c32 59 66 121 99 178z" />
    <glyph glyph-name="Ydieresis" unicode="&#x178;" horiz-adv-x="700" 
d="M320 887v-132h-150v132h150zM530 887v-132h-150v132h150zM514 712h186l-264 -435v-277h-169v277l-267 435h191l62 -103c34 -60 69 -119 102 -177c32 59 66 121 99 178z" />
    <glyph glyph-name="Ygrave" unicode="&#x1ef2;" horiz-adv-x="700" 
d="M411 755h-124l-134 144h170zM514 712h186l-264 -435v-277h-169v277l-267 435h191l62 -103c34 -60 69 -119 102 -177c32 59 66 121 99 178z" />
    <glyph glyph-name="Zacute" unicode="&#x179;" horiz-adv-x="645" 
d="M521 899l-134 -144h-124l88 144h170zM450 151h170v-151h-595v133l238 280c44 51 87 100 131 150c-69 -1 -137 -2 -206 -2h-151v151h577v-132l-239 -281c-44 -51 -87 -100 -132 -150c69 1 138 2 207 2z" />
    <glyph glyph-name="Zcaron" unicode="&#x17d;" horiz-adv-x="645" 
d="M410 755h-173l-119 144h139l66 -69l65 69h140zM450 151h170v-151h-595v133l238 280c44 51 87 100 131 150c-69 -1 -137 -2 -206 -2h-151v151h577v-132l-239 -281c-44 -51 -87 -100 -132 -150c69 1 138 2 207 2z" />
    <glyph glyph-name="Zdotaccent" unicode="&#x17b;" horiz-adv-x="645" 
d="M398 887v-132h-150v132h150zM450 151h170v-151h-595v133l238 280c44 51 87 100 131 150c-69 -1 -137 -2 -206 -2h-151v151h577v-132l-239 -281c-44 -51 -87 -100 -132 -150c69 1 138 2 207 2z" />
    <glyph glyph-name="Adieresis.ss01" horiz-adv-x="732" 
d="M262 750c-43 0 -79 35 -79 78c0 42 35 78 79 78c42 0 77 -35 77 -78s-35 -78 -77 -78zM463 750c-43 0 -78 35 -78 78c0 42 35 78 78 78c42 0 78 -35 78 -78s-35 -78 -78 -78zM552 0l-42 124h-296l-41 -124h-173l262 712h201l268 -712h-179zM261 265h201l-41 122
c-19 53 -40 118 -60 180c-20 -62 -41 -127 -59 -180z" />
    <glyph glyph-name="Cdotaccent.ss01" horiz-adv-x="741" 
d="M379 766c-44 0 -80 36 -80 80c0 45 35 81 80 81c44 0 80 -36 80 -81c0 -44 -35 -80 -80 -80zM379 -16c-212 0 -355 143 -355 372s138 372 355 372c169 0 309 -93 337 -271h-171c-22 84 -86 125 -166 125c-115 0 -179 -85 -179 -226c0 -142 64 -226 179 -226
c84 0 154 49 170 144h169c-22 -190 -164 -290 -339 -290z" />
    <glyph glyph-name="Edieresis.ss01" horiz-adv-x="623" 
d="M226 750c-43 0 -79 35 -79 78c0 42 35 78 79 78c42 0 77 -35 77 -78s-35 -78 -77 -78zM427 750c-43 0 -78 35 -78 78c0 42 35 78 78 78c42 0 78 -35 78 -78s-35 -78 -78 -78zM598 561h-375v-129h341v-142h-341v-139h374v-151h-543v712h544v-151z" />
    <glyph glyph-name="Edotaccent.ss01" horiz-adv-x="623" 
d="M326 750c-44 0 -80 36 -80 80c0 45 35 81 80 81c44 0 80 -36 80 -81c0 -44 -35 -80 -80 -80zM598 561h-375v-129h341v-142h-341v-139h374v-151h-543v712h544v-151z" />
    <glyph glyph-name="uni0122.ss01" horiz-adv-x="778" 
d="M406 397h328v-397h-118l-20 94c-48 -73 -132 -110 -231 -110c-206 0 -341 146 -341 372s136 372 361 372c185 0 317 -98 340 -256h-173c-20 68 -78 110 -166 110c-116 0 -186 -85 -186 -226s72 -226 194 -226c87 0 158 53 170 135h-158v132zM383 -53c49 0 78 -37 78 -93
v-2c0 -77 -41 -120 -118 -121l-22 -1v56l17 1c27 0 41 11 41 34v3c-42 2 -66 26 -66 62c0 33 26 61 70 61z" />
    <glyph glyph-name="Gdotaccent.ss01" horiz-adv-x="778" 
d="M385 766c-44 0 -80 36 -80 80c0 45 35 81 80 81c44 0 80 -36 80 -81c0 -44 -35 -80 -80 -80zM406 397h328v-397h-118l-20 94c-48 -73 -132 -110 -231 -110c-206 0 -341 146 -341 372s136 372 361 372c185 0 317 -98 340 -256h-173c-20 68 -78 110 -166 110
c-116 0 -186 -85 -186 -226s72 -226 194 -226c87 0 158 53 170 135h-158v132z" />
    <glyph glyph-name="Idieresis.ss01" horiz-adv-x="277" 
d="M44 750c-40 0 -73 34 -73 74s33 74 73 74s74 -34 74 -74s-33 -74 -74 -74zM233 750c-40 0 -74 34 -74 74s33 74 74 74c40 0 73 -34 73 -74s-33 -74 -73 -74zM54 0v712h169v-712h-169z" />
    <glyph glyph-name="Idotaccent.ss01" horiz-adv-x="277" 
d="M138 750c-44 0 -80 36 -80 80c0 45 36 81 80 81c45 0 81 -36 81 -81c0 -44 -36 -80 -81 -80zM54 0v712h169v-712h-169z" />
    <glyph glyph-name="uni0136.ss01" horiz-adv-x="725" 
d="M724 712l-286 -291l286 -421h-200l-205 308l-96 -95v-213h-169v712h169v-308l295 308h206zM371 -38c49 0 78 -37 78 -93v-2c0 -77 -41 -120 -118 -121l-22 -1v56l17 1c27 0 41 11 41 34v3c-42 2 -66 26 -66 62c0 33 26 61 70 61z" />
    <glyph glyph-name="uni013B.ss01" horiz-adv-x="562" 
d="M223 151h326v-151h-495v712h169v-561zM302 -38c49 0 78 -37 78 -93v-2c0 -77 -41 -120 -118 -121l-22 -1v56l17 1c27 0 41 11 41 34v3c-42 2 -66 26 -66 62c0 33 26 61 70 61z" />
    <glyph glyph-name="Ldot.ss01" horiz-adv-x="562" 
d="M223 151h326v-151h-495v712h169v-561zM422 279c-56 0 -100 43 -100 98c0 53 44 96 100 96c52 0 97 -43 97 -96c0 -55 -45 -98 -97 -98z" />
    <glyph glyph-name="uni0145.ss01" horiz-adv-x="732" 
d="M517 712h161v-712h-182l-174 284c-40 66 -78 129 -111 194c3 -116 4 -220 4 -329v-149h-161v712h182l174 -284c34 -56 78 -130 111 -196c-3 117 -4 221 -4 331v149zM366 -38c49 0 78 -37 78 -93v-2c0 -77 -41 -120 -118 -121l-22 -1v56l17 1c27 0 41 11 41 34v3
c-42 2 -66 26 -66 62c0 33 26 61 70 61z" />
    <glyph glyph-name="Odieresis.ss01" horiz-adv-x="778" 
d="M289 766c-43 0 -79 35 -79 78c0 42 35 78 79 78c42 0 77 -35 77 -78s-35 -78 -77 -78zM490 766c-43 0 -78 35 -78 78c0 42 35 78 78 78c42 0 78 -35 78 -78s-35 -78 -78 -78zM389 -16c-218 0 -365 147 -365 372s147 372 365 372c217 0 365 -147 365 -372
s-148 -372 -365 -372zM389 131c114 0 190 84 190 225s-76 225 -190 225s-189 -84 -189 -225s75 -225 189 -225z" />
    <glyph glyph-name="uni0156.ss01" horiz-adv-x="677" 
d="M640 77c1 -30 8 -58 20 -77h-174c-11 20 -16 45 -17 78l-3 80c-3 86 -41 104 -105 104h-138v-262h-169v712h337c179 0 258 -91 258 -206c0 -75 -37 -138 -115 -169c82 -27 98 -85 101 -160zM223 389h149c65 0 103 33 103 95c0 61 -38 93 -106 93h-146v-188zM359 -38
c49 0 78 -37 78 -93v-2c0 -77 -41 -120 -118 -121l-22 -1v56l17 1c27 0 41 11 41 34v3c-42 2 -66 26 -66 62c0 33 26 61 70 61z" />
    <glyph glyph-name="uni0218.ss01" horiz-adv-x="650" 
d="M387 426c171 -31 246 -96 246 -217c0 -150 -120 -225 -302 -225c-203 0 -311 96 -312 250h164c2 -97 66 -118 154 -118c80 0 121 29 121 82c0 48 -30 67 -128 85l-58 11c-150 26 -238 94 -238 223c0 121 92 211 278 211c194 0 291 -86 297 -232h-160
c-4 66 -39 100 -134 100c-74 0 -109 -27 -109 -72c0 -50 33 -70 121 -87zM339 -54c49 0 78 -37 78 -93v-2c0 -77 -41 -120 -118 -121l-22 -1v56l17 1c27 0 41 11 41 34v3c-42 2 -66 26 -66 62c0 33 26 61 70 61z" />
    <glyph glyph-name="uni021A.ss01" horiz-adv-x="632" 
d="M620 712v-151h-219v-561h-170v561h-218v151h607zM316 -38c49 0 78 -37 78 -93v-2c0 -77 -41 -120 -118 -121l-22 -1v56l17 1c27 0 41 11 41 34v3c-42 2 -66 26 -66 62c0 33 26 61 70 61z" />
    <glyph glyph-name="Udieresis.ss01" horiz-adv-x="707" 
d="M253 750c-43 0 -79 35 -79 78c0 42 35 78 79 78c42 0 77 -35 77 -78s-35 -78 -77 -78zM454 750c-43 0 -78 35 -78 78c0 42 35 78 78 78c42 0 78 -35 78 -78s-35 -78 -78 -78zM353 -16c-179 0 -309 98 -309 287v441h169v-443c0 -93 54 -139 140 -139c87 0 141 46 141 139
v443h169v-441c0 -189 -124 -287 -310 -287z" />
    <glyph glyph-name="Wdieresis.ss01" horiz-adv-x="993" 
d="M397 750c-43 0 -79 35 -79 78c0 42 35 78 79 78c42 0 77 -35 77 -78s-35 -78 -77 -78zM598 750c-43 0 -78 35 -78 78c0 42 35 78 78 78c42 0 78 -35 78 -78s-35 -78 -78 -78zM817 712h176l-195 -712h-189l-59 252c-20 84 -38 171 -53 257c-16 -86 -34 -173 -53 -257
l-60 -252h-189l-195 712h177l59 -244c22 -92 44 -188 63 -279c17 91 36 187 56 279l57 244h169l57 -244c21 -92 40 -188 56 -281c19 93 42 189 63 281z" />
    <glyph glyph-name="Ydieresis.ss01" horiz-adv-x="700" 
d="M250 750c-43 0 -79 35 -79 78c0 42 35 78 79 78c42 0 77 -35 77 -78s-35 -78 -77 -78zM451 750c-43 0 -78 35 -78 78c0 42 35 78 78 78c42 0 78 -35 78 -78s-35 -78 -78 -78zM514 712h186l-264 -435v-277h-169v277l-267 435h191l62 -103c34 -60 69 -119 102 -177
c32 59 66 121 99 178z" />
    <glyph glyph-name="Zdotaccent.ss01" horiz-adv-x="645" 
d="M324 750c-44 0 -80 36 -80 80c0 45 35 81 80 81c44 0 80 -36 80 -81c0 -44 -35 -80 -80 -80zM450 151h170v-151h-595v133l238 280c44 51 87 100 131 150c-69 -1 -137 -2 -206 -2h-151v151h577v-132l-239 -281c-44 -51 -87 -100 -132 -150c69 1 138 2 207 2z" />
    <glyph glyph-name="G.ss03" horiz-adv-x="767" 
d="M741 400c1 -16 2 -29 2 -44c0 -228 -137 -372 -353 -372c-218 0 -366 147 -366 372c0 227 138 372 365 372c195 0 315 -109 342 -254h-170c-20 62 -75 107 -172 107c-114 0 -189 -80 -189 -225c0 -152 87 -225 190 -225c96 0 155 50 176 137h-175v132h350z" />
    <glyph glyph-name="uni01F4.ss03" horiz-adv-x="767" 
d="M586 915l-134 -144h-124l88 144h170zM741 400c1 -16 2 -29 2 -44c0 -228 -137 -372 -353 -372c-218 0 -366 147 -366 372c0 227 138 372 365 372c195 0 315 -109 342 -254h-170c-20 62 -75 107 -172 107c-114 0 -189 -80 -189 -225c0 -152 87 -225 190 -225
c96 0 155 50 176 137h-175v132h350z" />
    <glyph glyph-name="Gbreve.ss03" horiz-adv-x="767" 
d="M389 766c-94 0 -162 56 -178 149h113c5 -36 28 -57 65 -57c36 0 60 21 65 57h113c-17 -93 -84 -149 -178 -149zM741 400c1 -16 2 -29 2 -44c0 -228 -137 -372 -353 -372c-218 0 -366 147 -366 372c0 227 138 372 365 372c195 0 315 -109 342 -254h-170
c-20 62 -75 107 -172 107c-114 0 -189 -80 -189 -225c0 -152 87 -225 190 -225c96 0 155 50 176 137h-175v132h350z" />
    <glyph glyph-name="Gcircumflex.ss03" horiz-adv-x="767" 
d="M389 840l-66 -69h-140l118 144h173l119 -144h-139zM741 400c1 -16 2 -29 2 -44c0 -228 -137 -372 -353 -372c-218 0 -366 147 -366 372c0 227 138 372 365 372c195 0 315 -109 342 -254h-170c-20 62 -75 107 -172 107c-114 0 -189 -80 -189 -225c0 -152 87 -225 190 -225
c96 0 155 50 176 137h-175v132h350z" />
    <glyph glyph-name="uni0122.ss03" horiz-adv-x="767" 
d="M741 400c1 -16 2 -29 2 -44c0 -228 -137 -372 -353 -372c-218 0 -366 147 -366 372c0 227 138 372 365 372c195 0 315 -109 342 -254h-170c-20 62 -75 107 -172 107c-114 0 -189 -80 -189 -225c0 -152 87 -225 190 -225c96 0 155 50 176 137h-175v132h350zM322 -169v110
h138v-117c0 -64 -37 -92 -114 -93h-24v53l23 1c24 0 37 11 37 37v9h-60z" />
    <glyph glyph-name="Gdotaccent.ss03" horiz-adv-x="767" 
d="M463 903v-132h-150v132h150zM741 400c1 -16 2 -29 2 -44c0 -228 -137 -372 -353 -372c-218 0 -366 147 -366 372c0 227 138 372 365 372c195 0 315 -109 342 -254h-170c-20 62 -75 107 -172 107c-114 0 -189 -80 -189 -225c0 -152 87 -225 190 -225c96 0 155 50 176 137
h-175v132h350z" />
    <glyph glyph-name="uni0122.ss01.ss03" horiz-adv-x="767" 
d="M741 400c1 -16 2 -29 2 -44c0 -228 -137 -372 -353 -372c-218 0 -366 147 -366 372c0 227 138 372 365 372c195 0 315 -109 342 -254h-170c-20 62 -75 107 -172 107c-114 0 -189 -80 -189 -225c0 -152 87 -225 190 -225c96 0 155 50 176 137h-175v132h350zM390 -54
c49 0 78 -37 78 -93v-2c0 -77 -41 -120 -118 -121l-22 -1v56l17 1c27 0 41 11 41 34v3c-42 2 -66 26 -66 62c0 33 26 61 70 61z" />
    <glyph glyph-name="Gdotaccent.ss01.ss03" horiz-adv-x="767" 
d="M389 766c-44 0 -80 36 -80 80c0 45 35 81 80 81c44 0 80 -36 80 -81c0 -44 -35 -80 -80 -80zM741 400c1 -16 2 -29 2 -44c0 -228 -137 -372 -353 -372c-218 0 -366 147 -366 372c0 227 138 372 365 372c195 0 315 -109 342 -254h-170c-20 62 -75 107 -172 107
c-114 0 -189 -80 -189 -225c0 -152 87 -225 190 -225c96 0 155 50 176 137h-175v132h350z" />
    <glyph glyph-name="R.ss04" horiz-adv-x="677" 
d="M483 0l-155 253h-105v-253h-169v712h330c162 0 263 -86 263 -224c0 -101 -55 -177 -150 -209l176 -279h-190zM223 577v-193h150c65 0 105 40 105 97s-40 96 -105 96h-150z" />
    <glyph glyph-name="Racute.ss04" horiz-adv-x="677" 
d="M541 899l-134 -144h-124l88 144h170zM483 0l-155 253h-105v-253h-169v712h330c162 0 263 -86 263 -224c0 -101 -55 -177 -150 -209l176 -279h-190zM223 577v-193h150c65 0 105 40 105 97s-40 96 -105 96h-150z" />
    <glyph glyph-name="Rcaron.ss04" horiz-adv-x="677" 
d="M430 755h-173l-119 144h139l66 -69l65 69h140zM483 0l-155 253h-105v-253h-169v712h330c162 0 263 -86 263 -224c0 -101 -55 -177 -150 -209l176 -279h-190zM223 577v-193h150c65 0 105 40 105 97s-40 96 -105 96h-150z" />
    <glyph glyph-name="uni0156.ss04" horiz-adv-x="677" 
d="M497 279l176 -279h-190l-155 253h-105v-253h-169v712h330c162 0 263 -86 263 -224c0 -101 -55 -177 -150 -209zM223 577v-193h150c65 0 105 40 105 97s-40 96 -105 96h-150zM285 -153v110h138v-117c0 -64 -37 -92 -114 -93h-24v53l23 1c24 0 37 11 37 37v9h-60z" />
    <glyph glyph-name="uni0156.ss01.ss04" horiz-adv-x="677" 
d="M497 279l176 -279h-190l-155 253h-105v-253h-169v712h330c162 0 263 -86 263 -224c0 -101 -55 -177 -150 -209zM223 577v-193h150c65 0 105 40 105 97s-40 96 -105 96h-150zM353 -38c49 0 78 -37 78 -93v-2c0 -77 -41 -120 -118 -121l-22 -1v56l17 1c27 0 41 11 41 34v3
c-42 2 -66 26 -66 62c0 33 26 61 70 61z" />
    <glyph glyph-name="aacute" unicode="&#xe1;" horiz-adv-x="559" 
d="M491 719l-134 -144h-124l88 144h170zM542 0h-157c-7 13 -12 35 -13 58c-33 -44 -89 -70 -165 -70c-108 0 -188 55 -188 158c0 89 53 148 202 161l81 7c44 5 67 18 67 51c0 31 -17 52 -79 52c-61 0 -86 -15 -91 -68h-155c8 114 81 179 247 179c162 0 230 -61 230 -159
v-274c0 -38 7 -75 21 -95zM254 93c60 0 115 29 115 110v38c-11 -12 -28 -17 -52 -20l-64 -7c-53 -6 -75 -26 -75 -62s27 -59 76 -59z" />
    <glyph glyph-name="abreve" unicode="&#x103;" horiz-adv-x="559" 
d="M290 570c-94 0 -162 56 -178 149h113c5 -36 28 -57 65 -57c36 0 60 21 65 57h113c-17 -93 -84 -149 -178 -149zM542 0h-157c-7 13 -12 35 -13 58c-33 -44 -89 -70 -165 -70c-108 0 -188 55 -188 158c0 89 53 148 202 161l81 7c44 5 67 18 67 51c0 31 -17 52 -79 52
c-61 0 -86 -15 -91 -68h-155c8 114 81 179 247 179c162 0 230 -61 230 -159v-274c0 -38 7 -75 21 -95zM254 93c60 0 115 29 115 110v38c-11 -12 -28 -17 -52 -20l-64 -7c-53 -6 -75 -26 -75 -62s27 -59 76 -59z" />
    <glyph glyph-name="acircumflex" unicode="&#xe2;" horiz-adv-x="559" 
d="M291 643l-66 -68h-140l118 144h173l119 -144h-139zM542 0h-157c-7 13 -12 35 -13 58c-33 -44 -89 -70 -165 -70c-108 0 -188 55 -188 158c0 89 53 148 202 161l81 7c44 5 67 18 67 51c0 31 -17 52 -79 52c-61 0 -86 -15 -91 -68h-155c8 114 81 179 247 179
c162 0 230 -61 230 -159v-274c0 -38 7 -75 21 -95zM254 93c60 0 115 29 115 110v38c-11 -12 -28 -17 -52 -20l-64 -7c-53 -6 -75 -26 -75 -62s27 -59 76 -59z" />
    <glyph glyph-name="adieresis" unicode="&#xe4;" horiz-adv-x="559" 
d="M260 707v-132h-150v132h150zM470 707v-132h-150v132h150zM542 0h-157c-7 13 -12 35 -13 58c-33 -44 -89 -70 -165 -70c-108 0 -188 55 -188 158c0 89 53 148 202 161l81 7c44 5 67 18 67 51c0 31 -17 52 -79 52c-61 0 -86 -15 -91 -68h-155c8 114 81 179 247 179
c162 0 230 -61 230 -159v-274c0 -38 7 -75 21 -95zM254 93c60 0 115 29 115 110v38c-11 -12 -28 -17 -52 -20l-64 -7c-53 -6 -75 -26 -75 -62s27 -59 76 -59z" />
    <glyph glyph-name="agrave" unicode="&#xe0;" horiz-adv-x="559" 
d="M355 575h-124l-134 144h170zM542 0h-157c-7 13 -12 35 -13 58c-33 -44 -89 -70 -165 -70c-108 0 -188 55 -188 158c0 89 53 148 202 161l81 7c44 5 67 18 67 51c0 31 -17 52 -79 52c-61 0 -86 -15 -91 -68h-155c8 114 81 179 247 179c162 0 230 -61 230 -159v-274
c0 -38 7 -75 21 -95zM254 93c60 0 115 29 115 110v38c-11 -12 -28 -17 -52 -20l-64 -7c-53 -6 -75 -26 -75 -62s27 -59 76 -59z" />
    <glyph glyph-name="amacron" unicode="&#x101;" horiz-adv-x="559" 
d="M458 677v-102h-336v102h336zM542 0h-157c-7 13 -12 35 -13 58c-33 -44 -89 -70 -165 -70c-108 0 -188 55 -188 158c0 89 53 148 202 161l81 7c44 5 67 18 67 51c0 31 -17 52 -79 52c-61 0 -86 -15 -91 -68h-155c8 114 81 179 247 179c162 0 230 -61 230 -159v-274
c0 -38 7 -75 21 -95zM254 93c60 0 115 29 115 110v38c-11 -12 -28 -17 -52 -20l-64 -7c-53 -6 -75 -26 -75 -62s27 -59 76 -59z" />
    <glyph glyph-name="aogonek" unicode="&#x105;" horiz-adv-x="559" 
d="M446 -88c0 -30 29 -36 50 -36c15 0 31 3 46 7v-82c-17 -5 -44 -9 -71 -9c-89 0 -141 38 -141 97c0 32 21 72 68 101c-19 20 -24 47 -26 69c-33 -45 -89 -71 -165 -71c-108 0 -188 55 -188 158c0 89 53 148 202 161l81 7c44 5 67 18 67 51c0 31 -17 52 -79 52
c-61 0 -86 -15 -91 -68h-155c8 114 81 179 247 179c162 0 230 -61 230 -159v-274c0 -38 7 -75 21 -95c-80 -36 -96 -66 -96 -88zM254 93c60 0 115 29 115 110v38c-11 -12 -28 -17 -52 -20l-64 -7c-53 -6 -75 -26 -75 -62s27 -59 76 -59z" />
    <glyph glyph-name="aring" unicode="&#xe5;" horiz-adv-x="559" 
d="M290 571c-86 0 -154 60 -154 146c0 85 68 145 154 145s154 -60 154 -145c0 -86 -68 -146 -154 -146zM290 775c-33 0 -59 -25 -59 -58s26 -58 59 -58s59 25 59 58s-26 58 -59 58zM542 0h-157c-7 13 -12 35 -13 58c-33 -44 -89 -70 -165 -70c-108 0 -188 55 -188 158
c0 89 53 148 202 161l81 7c44 5 67 18 67 51c0 31 -17 52 -79 52c-61 0 -86 -15 -91 -68h-155c8 114 81 179 247 179c162 0 230 -61 230 -159v-274c0 -38 7 -75 21 -95zM254 93c60 0 115 29 115 110v38c-11 -12 -28 -17 -52 -20l-64 -7c-53 -6 -75 -26 -75 -62
s27 -59 76 -59z" />
    <glyph glyph-name="aringacute" unicode="&#x1fb;" horiz-adv-x="559" 
d="M491 1049l-134 -144h-124l88 144h170zM290 571c-86 0 -154 60 -154 146c0 85 68 145 154 145s154 -60 154 -145c0 -86 -68 -146 -154 -146zM290 775c-33 0 -59 -25 -59 -58s26 -58 59 -58s59 25 59 58s-26 58 -59 58zM542 0h-157c-7 13 -12 35 -13 58
c-33 -44 -89 -70 -165 -70c-108 0 -188 55 -188 158c0 89 53 148 202 161l81 7c44 5 67 18 67 51c0 31 -17 52 -79 52c-61 0 -86 -15 -91 -68h-155c8 114 81 179 247 179c162 0 230 -61 230 -159v-274c0 -38 7 -75 21 -95zM254 93c60 0 115 29 115 110v38
c-11 -12 -28 -17 -52 -20l-64 -7c-53 -6 -75 -26 -75 -62s27 -59 76 -59z" />
    <glyph glyph-name="atilde" unicode="&#xe3;" horiz-adv-x="559" 
d="M225 612c-18 0 -27 -11 -28 -37h-95c0 99 48 138 107 138c34 0 63 -11 86 -20c21 -9 40 -16 60 -16c18 0 27 10 28 36h95c0 -98 -48 -138 -107 -138c-32 0 -60 11 -87 21c-20 8 -41 16 -59 16zM542 0h-157c-7 13 -12 35 -13 58c-33 -44 -89 -70 -165 -70
c-108 0 -188 55 -188 158c0 89 53 148 202 161l81 7c44 5 67 18 67 51c0 31 -17 52 -79 52c-61 0 -86 -15 -91 -68h-155c8 114 81 179 247 179c162 0 230 -61 230 -159v-274c0 -38 7 -75 21 -95zM254 93c60 0 115 29 115 110v38c-11 -12 -28 -17 -52 -20l-64 -7
c-53 -6 -75 -26 -75 -62s27 -59 76 -59z" />
    <glyph glyph-name="ae" unicode="&#xe6;" horiz-adv-x="902" 
d="M874 243v-31h-363c10 -75 54 -109 113 -109c48 0 81 21 99 58h140c-27 -109 -122 -173 -240 -173c-79 0 -145 29 -190 80c-54 -55 -120 -80 -211 -80c-123 0 -203 55 -203 158c0 89 53 148 202 161l81 7c44 5 67 18 67 51c0 31 -17 52 -79 52c-61 0 -86 -15 -91 -68h-155
c8 114 81 179 247 179c88 0 139 -19 170 -53c42 34 96 53 160 53c154 0 253 -111 253 -285zM620 413c-55 0 -97 -30 -108 -102h217c-10 64 -49 102 -109 102zM254 93c60 0 115 29 115 110v38c-11 -12 -28 -17 -52 -20l-64 -7c-53 -6 -75 -26 -75 -62s27 -59 76 -59z" />
    <glyph glyph-name="aeacute" unicode="&#x1fd;" horiz-adv-x="902" 
d="M658 719l-134 -144h-124l88 144h170zM874 243v-31h-363c10 -75 54 -109 113 -109c48 0 81 21 99 58h140c-27 -109 -122 -173 -240 -173c-79 0 -145 29 -190 80c-54 -55 -120 -80 -211 -80c-123 0 -203 55 -203 158c0 89 53 148 202 161l81 7c44 5 67 18 67 51
c0 31 -17 52 -79 52c-61 0 -86 -15 -91 -68h-155c8 114 81 179 247 179c88 0 139 -19 170 -53c42 34 96 53 160 53c154 0 253 -111 253 -285zM620 413c-55 0 -97 -30 -108 -102h217c-10 64 -49 102 -109 102zM254 93c60 0 115 29 115 110v38c-11 -12 -28 -17 -52 -20l-64 -7
c-53 -6 -75 -26 -75 -62s27 -59 76 -59z" />
    <glyph glyph-name="cacute" unicode="&#x107;" horiz-adv-x="558" 
d="M232 575l88 144h170l-134 -144h-124zM289 -12c-161 0 -265 106 -265 270s103 270 265 270c142 0 238 -79 252 -206h-155c-9 55 -47 79 -97 79c-66 0 -107 -44 -107 -143s42 -142 107 -142c52 0 93 26 100 87h155c-11 -133 -112 -215 -255 -215z" />
    <glyph glyph-name="ccaron" unicode="&#x10d;" horiz-adv-x="558" 
d="M376 575h-173l-119 144h139l66 -69l65 69h140zM389 203h155c-11 -133 -112 -215 -255 -215c-161 0 -265 106 -265 270s103 270 265 270c142 0 238 -79 252 -206h-155c-9 55 -47 79 -97 79c-66 0 -107 -44 -107 -143s42 -142 107 -142c52 0 93 26 100 87z" />
    <glyph glyph-name="ccedilla" unicode="&#xe7;" horiz-adv-x="558" 
d="M544 203c-10 -118 -91 -196 -209 -212l-40 -47c6 1 11 1 16 1c67 0 105 -34 105 -78c0 -55 -44 -97 -154 -97c-22 0 -52 3 -70 7v56c19 -3 34 -4 56 -4c42 0 61 16 61 40s-18 36 -57 36c-7 0 -13 0 -24 -1v38l37 47c-147 10 -241 113 -241 269c0 164 103 270 265 270
c142 0 238 -79 252 -206h-155c-9 55 -47 79 -97 79c-66 0 -107 -44 -107 -143s42 -142 107 -142c52 0 93 26 100 87h155z" />
    <glyph glyph-name="ccircumflex" unicode="&#x109;" horiz-adv-x="558" 
d="M290 643l-66 -68h-140l118 144h173l119 -144h-139zM389 203h155c-11 -133 -112 -215 -255 -215c-161 0 -265 106 -265 270s103 270 265 270c142 0 238 -79 252 -206h-155c-9 55 -47 79 -97 79c-66 0 -107 -44 -107 -143s42 -142 107 -142c52 0 93 26 100 87z" />
    <glyph glyph-name="cdotaccent" unicode="&#x10b;" horiz-adv-x="558" 
d="M215 575v132h150v-132h-150zM289 -12c-161 0 -265 106 -265 270s103 270 265 270c142 0 238 -79 252 -206h-155c-9 55 -47 79 -97 79c-66 0 -107 -44 -107 -143s42 -142 107 -142c52 0 93 26 100 87h155c-11 -133 -112 -215 -255 -215z" />
    <glyph glyph-name="eth" unicode="&#xf0;" horiz-adv-x="588" 
d="M423 606c90 -109 141 -222 141 -337c0 -182 -111 -281 -269 -281c-157 0 -271 100 -271 263c0 152 100 254 265 254c23 0 48 -5 72 -15c-19 28 -41 55 -64 80l-165 -48v87l99 29l-76 74h166l37 -36l1 -1l148 43v-88zM295 113c69 0 112 45 112 135c0 91 -43 136 -112 136
c-70 0 -113 -45 -113 -136c0 -90 43 -135 113 -135z" />
    <glyph glyph-name="dcaron" unicode="&#x10f;" horiz-adv-x="761" 
d="M400 454v258h156v-712h-152v67c-33 -49 -83 -79 -155 -79c-140 0 -225 106 -225 270s85 270 225 270c69 0 118 -28 151 -74zM618 712h153l-77 -166h-102zM292 113c70 0 111 47 111 145s-41 145 -111 145c-69 0 -110 -51 -110 -149s41 -141 110 -141z" />
    <glyph glyph-name="dcroat" unicode="&#x111;" horiz-adv-x="633" 
d="M633 662v-87h-77v-575h-152v67c-33 -49 -83 -79 -155 -79c-140 0 -225 106 -225 270s85 270 225 270c69 0 118 -28 151 -74v121h-109v87h109v50h156v-50h77zM292 113c70 0 111 47 111 145s-41 145 -111 145c-69 0 -110 -51 -110 -149s41 -141 110 -141z" />
    <glyph glyph-name="eacute" unicode="&#xe9;" horiz-adv-x="584" 
d="M491 719l-134 -144h-124l88 144h170zM556 243v-31h-382c11 -74 57 -109 118 -109c52 0 86 21 104 58h148c-28 -109 -128 -173 -252 -173c-160 0 -268 106 -268 270c0 163 105 270 266 270s266 -111 266 -285zM288 413c-57 0 -101 -30 -113 -102h228
c-11 64 -52 102 -115 102z" />
    <glyph glyph-name="ebreve" unicode="&#x115;" horiz-adv-x="584" 
d="M290 570c-94 0 -162 56 -178 149h113c5 -36 28 -57 65 -57c36 0 60 21 65 57h113c-17 -93 -84 -149 -178 -149zM556 243v-31h-382c11 -74 57 -109 118 -109c52 0 86 21 104 58h148c-28 -109 -128 -173 -252 -173c-160 0 -268 106 -268 270c0 163 105 270 266 270
s266 -111 266 -285zM288 413c-57 0 -101 -30 -113 -102h228c-11 64 -52 102 -115 102z" />
    <glyph glyph-name="ecaron" unicode="&#x11b;" horiz-adv-x="584" 
d="M376 575h-173l-119 144h139l66 -69l65 69h140zM556 243v-31h-382c11 -74 57 -109 118 -109c52 0 86 21 104 58h148c-28 -109 -128 -173 -252 -173c-160 0 -268 106 -268 270c0 163 105 270 266 270s266 -111 266 -285zM288 413c-57 0 -101 -30 -113 -102h228
c-11 64 -52 102 -115 102z" />
    <glyph glyph-name="ecircumflex" unicode="&#xea;" horiz-adv-x="584" 
d="M290 643l-66 -68h-140l118 144h173l119 -144h-139zM556 243v-31h-382c11 -74 57 -109 118 -109c52 0 86 21 104 58h148c-28 -109 -128 -173 -252 -173c-160 0 -268 106 -268 270c0 163 105 270 266 270s266 -111 266 -285zM288 413c-57 0 -101 -30 -113 -102h228
c-11 64 -52 102 -115 102z" />
    <glyph glyph-name="edieresis" unicode="&#xeb;" horiz-adv-x="584" 
d="M260 707v-132h-150v132h150zM470 707v-132h-150v132h150zM556 243v-31h-382c11 -74 57 -109 118 -109c52 0 86 21 104 58h148c-28 -109 -128 -173 -252 -173c-160 0 -268 106 -268 270c0 163 105 270 266 270s266 -111 266 -285zM288 413c-57 0 -101 -30 -113 -102h228
c-11 64 -52 102 -115 102z" />
    <glyph glyph-name="edotaccent" unicode="&#x117;" horiz-adv-x="584" 
d="M365 707v-132h-150v132h150zM556 243v-31h-382c11 -74 57 -109 118 -109c52 0 86 21 104 58h148c-28 -109 -128 -173 -252 -173c-160 0 -268 106 -268 270c0 163 105 270 266 270s266 -111 266 -285zM288 413c-57 0 -101 -30 -113 -102h228c-11 64 -52 102 -115 102z" />
    <glyph glyph-name="egrave" unicode="&#xe8;" horiz-adv-x="584" 
d="M354 575h-124l-134 144h170zM556 243v-31h-382c11 -74 57 -109 118 -109c52 0 86 21 104 58h148c-28 -109 -128 -173 -252 -173c-160 0 -268 106 -268 270c0 163 105 270 266 270s266 -111 266 -285zM288 413c-57 0 -101 -30 -113 -102h228c-11 64 -52 102 -115 102z" />
    <glyph glyph-name="emacron" unicode="&#x113;" horiz-adv-x="584" 
d="M458 677v-102h-336v102h336zM556 243v-31h-382c11 -74 57 -109 118 -109c52 0 86 21 104 58h148c-28 -109 -128 -173 -252 -173c-160 0 -268 106 -268 270c0 163 105 270 266 270s266 -111 266 -285zM288 413c-57 0 -101 -30 -113 -102h228c-11 64 -52 102 -115 102z" />
    <glyph glyph-name="eogonek" unicode="&#x119;" horiz-adv-x="584" 
d="M556 243v-31h-382c11 -74 57 -109 118 -109c52 0 86 21 104 58h148c-22 -84 -85 -141 -170 -163c-77 -35 -93 -64 -93 -86c0 -30 29 -36 50 -36c16 0 32 3 47 7v-82c-17 -5 -44 -9 -72 -9c-88 0 -140 38 -140 97c0 33 23 74 80 102c-134 18 -222 119 -222 267
c0 163 105 270 266 270s266 -111 266 -285zM288 413c-57 0 -101 -30 -113 -102h228c-11 64 -52 102 -115 102z" />
    <glyph glyph-name="uni0259" unicode="&#x259;" horiz-adv-x="584" 
d="M290 528c163 0 270 -106 270 -270c0 -163 -105 -270 -266 -270s-266 111 -266 285v31h381c-10 74 -54 109 -119 109c-49 0 -84 -21 -103 -58h-148c28 109 130 173 251 173zM295 103c58 0 102 30 113 102h-227c11 -64 52 -102 114 -102z" />
    <glyph glyph-name="uni01F5" unicode="&#x1f5;" horiz-adv-x="601" 
d="M504 719l-134 -144h-124l88 144h170zM404 516h152v-500c0 -139 -94 -224 -264 -224c-161 0 -244 78 -250 189h154c4 -48 37 -72 99 -72c70 0 105 38 105 101v74c-31 -45 -78 -73 -148 -73c-137 0 -228 107 -228 259c0 153 88 258 225 258c74 0 124 -31 155 -80v68z
M292 136c70 0 111 47 111 134s-41 133 -111 133c-69 0 -110 -50 -110 -135c0 -86 41 -132 110 -132z" />
    <glyph glyph-name="gbreve" unicode="&#x11f;" horiz-adv-x="601" 
d="M303 570c-94 0 -162 56 -178 149h113c5 -36 28 -57 65 -57c36 0 60 21 65 57h113c-17 -93 -84 -149 -178 -149zM404 516h152v-500c0 -139 -94 -224 -264 -224c-161 0 -244 78 -250 189h154c4 -48 37 -72 99 -72c70 0 105 38 105 101v74c-31 -45 -78 -73 -148 -73
c-137 0 -228 107 -228 259c0 153 88 258 225 258c74 0 124 -31 155 -80v68zM292 136c70 0 111 47 111 134s-41 133 -111 133c-69 0 -110 -50 -110 -135c0 -86 41 -132 110 -132z" />
    <glyph glyph-name="gcircumflex" unicode="&#x11d;" horiz-adv-x="601" 
d="M304 643l-66 -68h-140l118 144h173l119 -144h-139zM404 516h152v-500c0 -139 -94 -224 -264 -224c-161 0 -244 78 -250 189h154c4 -48 37 -72 99 -72c70 0 105 38 105 101v74c-31 -45 -78 -73 -148 -73c-137 0 -228 107 -228 259c0 153 88 258 225 258
c74 0 124 -31 155 -80v68zM292 136c70 0 111 47 111 134s-41 133 -111 133c-69 0 -110 -50 -110 -135c0 -86 41 -132 110 -132z" />
    <glyph glyph-name="uni0123" unicode="&#x123;" horiz-adv-x="601" 
d="M372 685v-110h-138v117c0 64 37 92 114 93h24v-53l-23 -1c-24 0 -37 -11 -37 -37v-9h60zM404 516h152v-500c0 -139 -94 -224 -264 -224c-161 0 -244 78 -250 189h154c4 -48 37 -72 99 -72c70 0 105 38 105 101v74c-31 -45 -78 -73 -148 -73c-137 0 -228 107 -228 259
c0 153 88 258 225 258c74 0 124 -31 155 -80v68zM292 136c70 0 111 47 111 134s-41 133 -111 133c-69 0 -110 -50 -110 -135c0 -86 41 -132 110 -132z" />
    <glyph glyph-name="gdotaccent" unicode="&#x121;" horiz-adv-x="601" 
d="M379 707v-132h-150v132h150zM404 516h152v-500c0 -139 -94 -224 -264 -224c-161 0 -244 78 -250 189h154c4 -48 37 -72 99 -72c70 0 105 38 105 101v74c-31 -45 -78 -73 -148 -73c-137 0 -228 107 -228 259c0 153 88 258 225 258c74 0 124 -31 155 -80v68zM292 136
c70 0 111 47 111 134s-41 133 -111 133c-69 0 -110 -50 -110 -135c0 -86 41 -132 110 -132z" />
    <glyph glyph-name="hbar" unicode="&#x127;" horiz-adv-x="614" 
d="M390 528c102 0 179 -62 179 -190v-338h-156v307c0 57 -25 88 -83 88c-48 0 -98 -31 -98 -107v-288h-156v575h-76v87h76v50h156v-50h110v-87h-110v-127c34 46 85 80 158 80z" />
    <glyph glyph-name="hcircumflex" unicode="&#x125;" horiz-adv-x="583" 
d="M123 823l-50 -68h-130l97 144h164l99 -144h-131zM359 528c102 0 179 -62 179 -190v-338h-156v307c0 57 -25 88 -83 88c-48 0 -98 -31 -98 -107v-288h-156v712h156v-264c34 46 86 80 158 80z" />
    <glyph glyph-name="dotlessi" unicode="&#x131;" horiz-adv-x="247" 
d="M45 0v516h156v-516h-156z" />
    <glyph glyph-name="iacute" unicode="&#xed;" horiz-adv-x="247" 
d="M68 575l51 144h155l-95 -144h-111zM45 0v516h156v-516h-156z" />
    <glyph glyph-name="ibreve" unicode="&#x12d;" horiz-adv-x="247" 
d="M123 570c-85 0 -149 58 -159 146h106c2 -33 21 -54 53 -54s51 21 53 54h106c-11 -88 -74 -146 -159 -146zM45 0v516h156v-516h-156z" />
    <glyph glyph-name="icircumflex" unicode="&#xee;" horiz-adv-x="247" 
d="M123 643l-50 -68h-130l97 144h164l99 -144h-131zM45 0v516h156v-516h-156z" />
    <glyph glyph-name="idieresis" unicode="&#xef;" horiz-adv-x="247" 
d="M-38 575v132h135v-132h-135zM150 575v132h134v-132h-134zM45 0v516h156v-516h-156z" />
    <glyph glyph-name="i.loclTRK" horiz-adv-x="247" 
d="M49 575v132h149v-132h-149zM45 0v516h156v-516h-156z" />
    <glyph glyph-name="igrave" unicode="&#xec;" horiz-adv-x="247" 
d="M67 575l-95 144h155l51 -144h-111zM45 0v516h156v-516h-156z" />
    <glyph glyph-name="ij" unicode="&#x133;" horiz-adv-x="494" 
d="M49 575v132h149v-132h-149zM296 575v132h149v-132h-149zM45 0v516h156v-516h-156zM275 -198c-22 0 -36 0 -51 1v119h19c30 0 49 7 49 46v548h156v-566c0 -106 -54 -148 -173 -148z" />
    <glyph glyph-name="imacron" unicode="&#x12b;" horiz-adv-x="247" 
d="M-19 575v102h284v-102h-284zM45 0v516h156v-516h-156z" />
    <glyph glyph-name="iogonek" unicode="&#x12f;" horiz-adv-x="247" 
d="M198 707v-132h-149v132h149zM167 -124c12 0 26 2 38 6v-81c-14 -5 -36 -9 -60 -9c-78 0 -123 37 -123 97c0 37 23 85 83 111h-60v516h156v-516c-67 -36 -78 -67 -78 -87c0 -32 26 -37 44 -37z" />
    <glyph glyph-name="itilde" unicode="&#x129;" horiz-adv-x="247" 
d="M-26 575c0 99 38 138 85 138c26 0 49 -11 68 -21c18 -9 32 -16 47 -16c14 0 22 11 22 37h76c0 -99 -38 -138 -85 -138c-26 0 -49 11 -70 21c-17 8 -31 15 -45 15s-22 -11 -22 -36h-76zM45 0v516h156v-516h-156z" />
    <glyph glyph-name="uni0237" unicode="&#x237;" horiz-adv-x="247" 
d="M28 -198c-22 0 -36 0 -51 1v119h19c30 0 49 7 49 46v548h156v-566c0 -106 -54 -148 -173 -148z" />
    <glyph glyph-name="jcircumflex" unicode="&#x135;" horiz-adv-x="247" 
d="M123 643l-50 -68h-130l97 144h164l99 -144h-131zM45 -32v548h156v-566c0 -106 -54 -148 -173 -148c-22 0 -36 0 -51 1v119h19c30 0 49 7 49 46z" />
    <glyph glyph-name="uni0137" unicode="&#x137;" horiz-adv-x="580" 
d="M374 316l205 -316h-178l-133 213l-70 -72v-141h-153v712h153v-400l191 204h179zM231 -169v110h138v-117c0 -64 -37 -92 -114 -93h-24v53l23 1c24 0 37 11 37 37v9h-60z" />
    <glyph glyph-name="kgreenlandic" unicode="&#x138;" horiz-adv-x="580" 
d="M401 0l-133 213l-70 -72v-141h-153v516h153v-204l191 204h179l-194 -200l205 -316h-178z" />
    <glyph glyph-name="lacute" unicode="&#x13a;" horiz-adv-x="247" 
d="M180 755h-111l51 144h155zM45 0v712h156v-712h-156z" />
    <glyph glyph-name="lcaron" unicode="&#x13e;" horiz-adv-x="407" 
d="M45 0v712h156v-712h-156zM237 546l27 166h153l-77 -166h-103z" />
    <glyph glyph-name="uni013C" unicode="&#x13c;" horiz-adv-x="247" 
d="M45 712h156v-712h-156v712zM55 -169v110h138v-117c0 -64 -37 -92 -114 -93h-24v53l23 1c24 0 37 11 37 37v9h-60z" />
    <glyph glyph-name="ldot" unicode="&#x140;" horiz-adv-x="494" 
d="M45 0v712h156v-712h-156zM283 268v172h177v-172h-177z" />
    <glyph glyph-name="lslash" unicode="&#x142;" horiz-adv-x="308" 
d="M308 476v-99l-76 -35v-342h-156v272l-76 -35v99l76 35v341h156v-271z" />
    <glyph glyph-name="nacute" unicode="&#x144;" horiz-adv-x="583" 
d="M492 719l-134 -144h-124l88 144h170zM359 528c102 0 179 -62 179 -190v-338h-156v307c0 57 -25 88 -83 88c-48 0 -98 -31 -98 -107v-288h-156v516h152v-73c34 48 87 85 162 85z" />
    <glyph glyph-name="napostrophe" unicode="&#x149;" horiz-adv-x="780" 
d="M34 553v158h163v-170c0 -99 -51 -143 -142 -145h-21v79h22c32 1 47 20 47 62v16h-69zM555 528c103 0 179 -62 179 -190v-338h-156v307c0 57 -25 88 -82 88c-48 0 -98 -31 -98 -107v-288h-156v516h152v-72c34 48 87 84 161 84z" />
    <glyph glyph-name="ncaron" unicode="&#x148;" horiz-adv-x="583" 
d="M377 575h-173l-119 144h139l66 -69l65 69h140zM359 528c102 0 179 -62 179 -190v-338h-156v307c0 57 -25 88 -83 88c-48 0 -98 -31 -98 -107v-288h-156v516h152v-73c34 48 87 85 162 85z" />
    <glyph glyph-name="uni0146" unicode="&#x146;" horiz-adv-x="583" 
d="M359 528c102 0 179 -62 179 -190v-338h-156v307c0 57 -25 88 -83 88c-48 0 -98 -31 -98 -107v-288h-156v516h152v-73c34 48 87 85 162 85zM222 -169v110h138v-117c0 -64 -37 -92 -114 -93h-24v53l23 1c24 0 37 11 37 37v9h-60z" />
    <glyph glyph-name="eng" unicode="&#x14b;" horiz-adv-x="583" 
d="M359 528c102 0 179 -62 179 -190v-390c0 -106 -55 -148 -173 -148c-23 0 -37 0 -52 1v119h20c29 0 49 7 49 45v342c0 57 -25 88 -83 88c-48 0 -98 -31 -98 -107v-288h-156v516h152v-73c34 48 87 85 162 85z" />
    <glyph glyph-name="ntilde" unicode="&#xf1;" horiz-adv-x="583" 
d="M226 612c-18 0 -27 -11 -28 -37h-95c0 99 48 138 107 138c34 0 63 -11 86 -20c21 -9 40 -16 60 -16c18 0 27 10 28 36h95c0 -98 -48 -138 -107 -138c-32 0 -60 11 -87 21c-20 8 -41 16 -59 16zM359 528c102 0 179 -62 179 -190v-338h-156v307c0 57 -25 88 -83 88
c-48 0 -98 -31 -98 -107v-288h-156v516h152v-73c34 48 87 85 162 85z" />
    <glyph glyph-name="oacute" unicode="&#xf3;" horiz-adv-x="589" 
d="M238 575l88 144h170l-134 -144h-124zM295 -12c-165 0 -271 106 -271 270s106 270 271 270c164 0 270 -106 270 -270s-106 -270 -270 -270zM295 113c69 0 112 47 112 145s-43 145 -112 145c-70 0 -113 -47 -113 -145s43 -145 113 -145z" />
    <glyph glyph-name="obreve" unicode="&#x14f;" horiz-adv-x="589" 
d="M295 570c-94 0 -162 56 -178 149h113c5 -36 28 -57 65 -57c36 0 60 21 65 57h113c-17 -93 -84 -149 -178 -149zM295 -12c-165 0 -271 106 -271 270s106 270 271 270c164 0 270 -106 270 -270s-106 -270 -270 -270zM295 113c69 0 112 47 112 145s-43 145 -112 145
c-70 0 -113 -47 -113 -145s43 -145 113 -145z" />
    <glyph glyph-name="ocircumflex" unicode="&#xf4;" horiz-adv-x="589" 
d="M295 643l-66 -68h-140l118 144h173l119 -144h-139zM295 528c164 0 270 -106 270 -270s-106 -270 -270 -270c-165 0 -271 106 -271 270s106 270 271 270zM295 113c69 0 112 47 112 145s-43 145 -112 145c-70 0 -113 -47 -113 -145s43 -145 113 -145z" />
    <glyph glyph-name="odieresis" unicode="&#xf6;" horiz-adv-x="589" 
d="M114 575v132h150v-132h-150zM324 575v132h150v-132h-150zM295 -12c-165 0 -271 106 -271 270s106 270 271 270c164 0 270 -106 270 -270s-106 -270 -270 -270zM295 113c69 0 112 47 112 145s-43 145 -112 145c-70 0 -113 -47 -113 -145s43 -145 113 -145z" />
    <glyph glyph-name="ograve" unicode="&#xf2;" horiz-adv-x="589" 
d="M235 575l-134 144h170l88 -144h-124zM295 -12c-165 0 -271 106 -271 270s106 270 271 270c164 0 270 -106 270 -270s-106 -270 -270 -270zM295 113c69 0 112 47 112 145s-43 145 -112 145c-70 0 -113 -47 -113 -145s43 -145 113 -145z" />
    <glyph glyph-name="ohungarumlaut" unicode="&#x151;" horiz-adv-x="589" 
d="M129 575l88 144h171l-140 -144h-119zM352 575l89 144h170l-139 -144h-120zM295 -12c-165 0 -271 106 -271 270s106 270 271 270c164 0 270 -106 270 -270s-106 -270 -270 -270zM295 113c69 0 112 47 112 145s-43 145 -112 145c-70 0 -113 -47 -113 -145s43 -145 113 -145
z" />
    <glyph glyph-name="omacron" unicode="&#x14d;" horiz-adv-x="589" 
d="M127 575v102h336v-102h-336zM295 -12c-165 0 -271 106 -271 270s106 270 271 270c164 0 270 -106 270 -270s-106 -270 -270 -270zM295 113c69 0 112 47 112 145s-43 145 -112 145c-70 0 -113 -47 -113 -145s43 -145 113 -145z" />
    <glyph glyph-name="oslash" unicode="&#xf8;" horiz-adv-x="589" 
d="M566 506l-60 -68c38 -45 59 -107 59 -180c0 -164 -106 -270 -270 -270c-60 0 -112 14 -154 39l-61 -69l-58 51l61 69c-38 45 -59 107 -59 180c0 164 106 270 271 270c59 0 111 -14 153 -39l61 68zM175 258c0 -26 3 -48 8 -68l180 203c-18 13 -41 20 -68 20
c-74 0 -120 -50 -120 -155zM414 258c0 26 -3 48 -8 68l-180 -203c19 -13 42 -20 69 -20c73 0 119 50 119 155z" />
    <glyph glyph-name="oslashacute" unicode="&#x1ff;" horiz-adv-x="589" 
d="M496 719l-134 -144h-124l88 144h170zM566 506l-60 -68c38 -45 59 -107 59 -180c0 -164 -106 -270 -270 -270c-60 0 -112 14 -154 39l-61 -69l-58 51l61 69c-38 45 -59 107 -59 180c0 164 106 270 271 270c59 0 111 -14 153 -39l61 68zM175 258c0 -26 3 -48 8 -68l180 203
c-18 13 -41 20 -68 20c-74 0 -120 -50 -120 -155zM414 258c0 26 -3 48 -8 68l-180 -203c19 -13 42 -20 69 -20c73 0 119 50 119 155z" />
    <glyph glyph-name="otilde" unicode="&#xf5;" horiz-adv-x="589" 
d="M106 575c0 99 48 138 107 138c34 0 63 -11 86 -20c21 -9 40 -16 60 -16c18 0 27 10 28 36h95c0 -98 -48 -138 -107 -138c-32 0 -60 11 -87 21c-20 8 -41 16 -59 16s-27 -11 -28 -37h-95zM295 -12c-165 0 -271 106 -271 270s106 270 271 270c164 0 270 -106 270 -270
s-106 -270 -270 -270zM295 113c69 0 112 47 112 145s-43 145 -112 145c-70 0 -113 -47 -113 -145s43 -145 113 -145z" />
    <glyph glyph-name="oe" unicode="&#x153;" horiz-adv-x="967" 
d="M939 243v-31h-381c10 -75 55 -109 116 -109c51 0 85 21 103 58h147c-27 -109 -126 -173 -250 -173c-77 0 -143 30 -188 82c-45 -52 -112 -82 -191 -82c-165 0 -271 106 -271 270s106 270 271 270c79 0 146 -30 191 -82c44 52 110 82 187 82c161 0 266 -111 266 -285z
M672 413c-58 0 -102 -31 -113 -103h227c-10 65 -51 103 -114 103zM295 113c69 0 112 47 112 145s-43 145 -112 145c-70 0 -113 -47 -113 -145s43 -145 113 -145z" />
    <glyph glyph-name="thorn" unicode="&#xfe;" horiz-adv-x="603" 
d="M353 528c141 0 226 -106 226 -270s-85 -270 -226 -270c-69 0 -118 28 -151 74v-258h-157v908h157v-258c33 46 82 74 151 74zM310 113c70 0 111 51 111 149s-41 141 -111 141c-69 0 -110 -47 -110 -145s41 -145 110 -145z" />
    <glyph glyph-name="racute" unicode="&#x155;" horiz-adv-x="399" 
d="M364 719l-95 -144h-111l51 144h155zM344 524c12 0 23 -1 34 -2v-142h-40c-87 0 -137 -43 -137 -140v-240h-156v516h152v-96c22 64 70 104 147 104z" />
    <glyph glyph-name="rcaron" unicode="&#x159;" horiz-adv-x="399" 
d="M294 575h-164l-97 144h130l50 -68l49 68h131zM197 420c22 64 70 104 147 104c12 0 23 -1 34 -2v-142h-40c-87 0 -137 -43 -137 -140v-240h-156v516h152v-96z" />
    <glyph glyph-name="uni0157" unicode="&#x157;" horiz-adv-x="399" 
d="M344 524c12 0 23 -1 34 -2v-142h-40c-87 0 -137 -43 -137 -140v-240h-156v516h152v-96c22 64 70 104 147 104zM55 -169v110h138v-117c0 -64 -37 -92 -114 -93h-24v53l23 1c24 0 37 11 37 37v9h-60z" />
    <glyph glyph-name="sacute" unicode="&#x15b;" horiz-adv-x="520" 
d="M202 575l88 144h170l-134 -144h-124zM262 -15c-158 0 -239 51 -248 179h152c6 -56 34 -75 99 -75c63 0 87 19 87 50s-19 46 -89 57l-67 11c-109 17 -174 66 -174 158c0 103 81 163 232 163c174 0 235 -76 240 -177h-145c-2 56 -39 73 -95 73s-79 -19 -79 -49
c0 -31 25 -44 75 -52l77 -11c122 -19 181 -68 181 -160c0 -107 -91 -167 -246 -167z" />
    <glyph glyph-name="scaron" unicode="&#x161;" horiz-adv-x="520" 
d="M345 575h-173l-119 144h139l66 -69l65 69h140zM327 312c122 -19 181 -68 181 -160c0 -107 -91 -167 -246 -167c-158 0 -239 51 -248 179h152c6 -56 34 -75 99 -75c63 0 87 19 87 50s-19 46 -89 57l-67 11c-109 17 -174 66 -174 158c0 103 81 163 232 163
c174 0 235 -76 240 -177h-145c-2 56 -39 73 -95 73s-79 -19 -79 -49c0 -31 25 -44 75 -52z" />
    <glyph glyph-name="scedilla" unicode="&#x15f;" horiz-adv-x="520" 
d="M508 152c0 -97 -74 -155 -203 -165l-39 -46c6 1 11 1 16 1c67 0 105 -34 105 -78c0 -55 -44 -97 -154 -97c-22 0 -52 3 -70 7v56c19 -3 34 -4 56 -4c42 0 61 16 61 40s-18 36 -57 36c-7 0 -13 0 -24 -1v38l36 47c-140 5 -213 57 -221 178h152c6 -56 34 -75 99 -75
c63 0 87 19 87 50s-19 46 -89 57l-67 11c-109 17 -174 66 -174 158c0 103 81 163 232 163c174 0 235 -76 240 -177h-145c-2 56 -39 73 -95 73s-79 -19 -79 -49c0 -31 25 -44 75 -52l77 -11c122 -19 181 -68 181 -160z" />
    <glyph glyph-name="scircumflex" unicode="&#x15d;" horiz-adv-x="520" 
d="M259 643l-66 -68h-140l118 144h173l119 -144h-139zM327 312c122 -19 181 -68 181 -160c0 -107 -91 -167 -246 -167c-158 0 -239 51 -248 179h152c6 -56 34 -75 99 -75c63 0 87 19 87 50s-19 46 -89 57l-67 11c-109 17 -174 66 -174 158c0 103 81 163 232 163
c174 0 235 -76 240 -177h-145c-2 56 -39 73 -95 73s-79 -19 -79 -49c0 -31 25 -44 75 -52z" />
    <glyph glyph-name="uni0219" unicode="&#x219;" horiz-adv-x="520" 
d="M327 312c122 -19 181 -68 181 -160c0 -107 -91 -167 -246 -167c-158 0 -239 51 -248 179h152c6 -56 34 -75 99 -75c63 0 87 19 87 50s-19 46 -89 57l-67 11c-109 17 -174 66 -174 158c0 103 81 163 232 163c174 0 235 -76 240 -177h-145c-2 56 -39 73 -95 73
s-79 -19 -79 -49c0 -31 25 -44 75 -52zM195 -184v110h138v-117c0 -64 -37 -92 -114 -93h-24v53l23 1c24 0 37 11 37 37v9h-60z" />
    <glyph glyph-name="germandbls" unicode="&#xdf;" horiz-adv-x="593" 
d="M455 397c74 -33 114 -101 114 -174c0 -139 -104 -225 -261 -225c-15 0 -36 1 -51 2v124c9 -1 26 -2 37 -2c72 0 115 39 115 99c0 63 -41 100 -118 100h-30v104h29c54 0 92 35 92 85c0 48 -33 86 -90 86c-58 0 -91 -37 -91 -93v-503h-156v497c0 146 87 231 243 231
c139 0 235 -87 235 -192c0 -59 -22 -106 -68 -139z" />
    <glyph glyph-name="tbar" unicode="&#x167;" horiz-adv-x="364" 
d="M343 402h-99v-90h99v-87h-99v-64c0 -38 19 -45 59 -45h40v-116c-24 -3 -49 -4 -72 -4c-129 0 -183 42 -183 148v81h-76v87h76v90h-77v114h77v153h156v-153h99v-114z" />
    <glyph glyph-name="tcaron" unicode="&#x165;" horiz-adv-x="364" 
d="M302 712h153l-77 -166h-103zM244 669v-153h99v-114h-99v-241c0 -38 19 -45 59 -45h40v-116c-24 -3 -49 -4 -72 -4c-129 0 -183 42 -183 148v258h-77v114h77v153h156z" />
    <glyph glyph-name="uni0163" unicode="&#x163;" horiz-adv-x="364" 
d="M343 402h-99v-241c0 -38 19 -45 59 -45h40v-116c-24 -3 -49 -4 -72 -4h-19l-35 -40c6 1 11 1 16 1c67 0 105 -34 105 -78c0 -55 -44 -97 -154 -97c-22 0 -52 3 -70 7v56c19 -3 34 -4 56 -4c42 0 61 16 61 40s-18 36 -57 36c-7 0 -13 0 -24 -1v38l39 50
c-70 17 -101 60 -101 140v258h-77v114h77v153h156v-153h99v-114z" />
    <glyph glyph-name="uni021B" unicode="&#x21b;" horiz-adv-x="364" 
d="M343 402h-99v-241c0 -38 19 -45 59 -45h40v-116c-24 -3 -49 -4 -72 -4c-129 0 -183 42 -183 148v258h-77v114h77v153h156v-153h99v-114zM146 -169v110h138v-117c0 -64 -37 -92 -114 -93h-24v53l23 1c24 0 37 11 37 37v9h-60z" />
    <glyph glyph-name="uacute" unicode="&#xfa;" horiz-adv-x="583" 
d="M488 719l-134 -144h-124l88 144h170zM382 516h156v-516h-152v73c-34 -48 -86 -85 -162 -85c-102 0 -179 62 -179 190v338h156v-307c0 -57 25 -88 83 -88c48 0 98 31 98 107v288z" />
    <glyph glyph-name="ubreve" unicode="&#x16d;" horiz-adv-x="583" 
d="M287 570c-94 0 -162 56 -178 149h113c5 -36 28 -57 65 -57c36 0 60 21 65 57h113c-17 -93 -84 -149 -178 -149zM382 516h156v-516h-152v73c-34 -48 -86 -85 -162 -85c-102 0 -179 62 -179 190v338h156v-307c0 -57 25 -88 83 -88c48 0 98 31 98 107v288z" />
    <glyph glyph-name="ucircumflex" unicode="&#xfb;" horiz-adv-x="583" 
d="M287 643l-66 -68h-140l118 144h173l119 -144h-139zM382 516h156v-516h-152v73c-34 -48 -86 -85 -162 -85c-102 0 -179 62 -179 190v338h156v-307c0 -57 25 -88 83 -88c48 0 98 31 98 107v288z" />
    <glyph glyph-name="udieresis" unicode="&#xfc;" horiz-adv-x="583" 
d="M257 707v-132h-150v132h150zM467 707v-132h-150v132h150zM382 516h156v-516h-152v73c-34 -48 -86 -85 -162 -85c-102 0 -179 62 -179 190v338h156v-307c0 -57 25 -88 83 -88c48 0 98 31 98 107v288z" />
    <glyph glyph-name="ugrave" unicode="&#xf9;" horiz-adv-x="583" 
d="M352 575h-124l-134 144h170zM382 516h156v-516h-152v73c-34 -48 -86 -85 -162 -85c-102 0 -179 62 -179 190v338h156v-307c0 -57 25 -88 83 -88c48 0 98 31 98 107v288z" />
    <glyph glyph-name="uhungarumlaut" unicode="&#x171;" horiz-adv-x="583" 
d="M381 719l-140 -144h-119l88 144h171zM465 575h-120l89 144h170zM382 228v288h156v-516h-152v73c-34 -48 -86 -85 -162 -85c-102 0 -179 62 -179 190v338h156v-307c0 -57 25 -88 83 -88c48 0 98 31 98 107z" />
    <glyph glyph-name="umacron" unicode="&#x16b;" horiz-adv-x="583" 
d="M455 677v-102h-336v102h336zM382 516h156v-516h-152v73c-34 -48 -86 -85 -162 -85c-102 0 -179 62 -179 190v338h156v-307c0 -57 25 -88 83 -88c48 0 98 31 98 107v288z" />
    <glyph glyph-name="uogonek" unicode="&#x173;" horiz-adv-x="583" 
d="M538 0c-81 -36 -97 -66 -97 -88c0 -30 29 -36 50 -36c16 0 32 3 47 7v-82c-17 -5 -44 -9 -72 -9c-88 0 -140 38 -140 97c0 37 28 84 101 111h-41v73c-34 -48 -86 -85 -162 -85c-102 0 -179 62 -179 190v338h156v-307c0 -57 25 -88 83 -88c48 0 98 31 98 107v288h156v-516
z" />
    <glyph glyph-name="uring" unicode="&#x16f;" horiz-adv-x="583" 
d="M287 571c-86 0 -154 60 -154 146c0 85 68 145 154 145s154 -60 154 -145c0 -86 -68 -146 -154 -146zM287 775c-33 0 -59 -25 -59 -58s26 -58 59 -58s59 25 59 58s-26 58 -59 58zM382 516h156v-516h-152v73c-34 -48 -86 -85 -162 -85c-102 0 -179 62 -179 190v338h156
v-307c0 -57 25 -88 83 -88c48 0 98 31 98 107v288z" />
    <glyph glyph-name="utilde" unicode="&#x169;" horiz-adv-x="583" 
d="M222 612c-18 0 -27 -11 -28 -37h-95c0 99 48 138 107 138c34 0 63 -11 86 -20c21 -9 40 -16 60 -16c18 0 27 10 28 36h95c0 -98 -48 -138 -107 -138c-32 0 -60 11 -87 21c-20 8 -41 16 -59 16zM382 516h156v-516h-152v73c-34 -48 -86 -85 -162 -85
c-102 0 -179 62 -179 190v338h156v-307c0 -57 25 -88 83 -88c48 0 98 31 98 107v288z" />
    <glyph glyph-name="wacute" unicode="&#x1e83;" horiz-adv-x="858" 
d="M630 719l-134 -144h-124l88 144h170zM689 516h167l-168 -516h-164l-57 194c-14 46 -27 93 -39 139c-11 -46 -24 -93 -37 -139l-57 -194h-164l-169 516h168l48 -166c17 -58 33 -116 48 -174c14 58 29 116 45 175l47 165h144l47 -165c16 -59 31 -117 45 -175
c15 58 31 116 48 174z" />
    <glyph glyph-name="wcircumflex" unicode="&#x175;" horiz-adv-x="858" 
d="M430 643l-66 -68h-140l118 144h173l119 -144h-139zM689 516h167l-168 -516h-164l-57 194c-14 46 -27 93 -39 139c-11 -46 -24 -93 -37 -139l-57 -194h-164l-169 516h168l48 -166c17 -58 33 -116 48 -174c14 58 29 116 45 175l47 165h144l47 -165c16 -59 31 -117 45 -175
c15 58 31 116 48 174z" />
    <glyph glyph-name="wdieresis" unicode="&#x1e85;" horiz-adv-x="858" 
d="M399 707v-132h-150v132h150zM609 707v-132h-150v132h150zM689 516h167l-168 -516h-164l-57 194c-14 46 -27 93 -39 139c-11 -46 -24 -93 -37 -139l-57 -194h-164l-169 516h168l48 -166c17 -58 33 -116 48 -174c14 58 29 116 45 175l47 165h144l47 -165
c16 -59 31 -117 45 -175c15 58 31 116 48 174z" />
    <glyph glyph-name="wgrave" unicode="&#x1e81;" horiz-adv-x="858" 
d="M494 575h-124l-134 144h170zM689 516h167l-168 -516h-164l-57 194c-14 46 -27 93 -39 139c-11 -46 -24 -93 -37 -139l-57 -194h-164l-169 516h168l48 -166c17 -58 33 -116 48 -174c14 58 29 116 45 175l47 165h144l47 -165c16 -59 31 -117 45 -175c15 58 31 116 48 174z
" />
    <glyph glyph-name="yacute" unicode="&#xfd;" horiz-adv-x="551" 
d="M477 719l-134 -144h-124l88 144h170zM389 516h161l-187 -536c-45 -130 -104 -177 -257 -177c-30 0 -45 1 -61 2v120h50c58 0 78 33 78 72c0 29 -12 66 -24 100l-148 419h168l23 -73c30 -101 60 -207 88 -325c28 119 57 224 86 324z" />
    <glyph glyph-name="ycircumflex" unicode="&#x177;" horiz-adv-x="551" 
d="M276 643l-66 -68h-140l118 144h173l119 -144h-139zM389 516h161l-187 -536c-45 -130 -104 -177 -257 -177c-30 0 -45 1 -61 2v120h50c58 0 78 33 78 72c0 29 -12 66 -24 100l-148 419h168l23 -73c30 -101 60 -207 88 -325c28 119 57 224 86 324z" />
    <glyph glyph-name="ydieresis" unicode="&#xff;" horiz-adv-x="551" 
d="M246 707v-132h-150v132h150zM456 707v-132h-150v132h150zM389 516h161l-187 -536c-45 -130 -104 -177 -257 -177c-30 0 -45 1 -61 2v120h50c58 0 78 33 78 72c0 29 -12 66 -24 100l-148 419h168l23 -73c30 -101 60 -207 88 -325c28 119 57 224 86 324z" />
    <glyph glyph-name="ygrave" unicode="&#x1ef3;" horiz-adv-x="551" 
d="M340 575h-124l-134 144h170zM389 516h161l-187 -536c-45 -130 -104 -177 -257 -177c-30 0 -45 1 -61 2v120h50c58 0 78 33 78 72c0 29 -12 66 -24 100l-148 419h168l23 -73c30 -101 60 -207 88 -325c28 119 57 224 86 324z" />
    <glyph glyph-name="zacute" unicode="&#x17a;" horiz-adv-x="507" 
d="M455 719l-134 -144h-124l88 144h170zM327 116h153v-116h-452v98l183 226c21 26 42 51 64 77c-35 -1 -69 -1 -104 -1h-141v116h440v-98l-183 -226c-21 -26 -42 -51 -64 -77c35 1 69 1 104 1z" />
    <glyph glyph-name="zcaron" unicode="&#x17e;" horiz-adv-x="507" 
d="M341 575h-173l-119 144h139l66 -69l65 69h140zM327 116h153v-116h-452v98l183 226c21 26 42 51 64 77c-35 -1 -69 -1 -104 -1h-141v116h440v-98l-183 -226c-21 -26 -42 -51 -64 -77c35 1 69 1 104 1z" />
    <glyph glyph-name="zdotaccent" unicode="&#x17c;" horiz-adv-x="507" 
d="M330 707v-132h-150v132h150zM327 116h153v-116h-452v98l183 226c21 26 42 51 64 77c-35 -1 -69 -1 -104 -1h-141v116h440v-98l-183 -226c-21 -26 -42 -51 -64 -77c35 1 69 1 104 1z" />
    <glyph glyph-name="adieresis.ss01" horiz-adv-x="559" 
d="M190 570c-43 0 -79 35 -79 78c0 42 35 78 79 78c42 0 77 -35 77 -78s-35 -78 -77 -78zM391 570c-43 0 -78 35 -78 78c0 42 35 78 78 78c42 0 78 -35 78 -78s-35 -78 -78 -78zM542 0h-157c-7 13 -12 35 -13 58c-33 -44 -89 -70 -165 -70c-108 0 -188 55 -188 158
c0 89 53 148 202 161l81 7c44 5 67 18 67 51c0 31 -17 52 -79 52c-61 0 -86 -15 -91 -68h-155c8 114 81 179 247 179c162 0 230 -61 230 -159v-274c0 -38 7 -75 21 -95zM254 93c60 0 115 29 115 110v38c-11 -12 -28 -17 -52 -20l-64 -7c-53 -6 -75 -26 -75 -62
s27 -59 76 -59z" />
    <glyph glyph-name="cdotaccent.ss01" horiz-adv-x="558" 
d="M289 570c-44 0 -80 36 -80 80c0 45 35 81 80 81c44 0 80 -36 80 -81c0 -44 -35 -80 -80 -80zM289 -12c-161 0 -265 106 -265 270s103 270 265 270c142 0 238 -79 252 -206h-155c-9 55 -47 79 -97 79c-66 0 -107 -44 -107 -143s42 -142 107 -142c52 0 93 26 100 87h155
c-11 -133 -112 -215 -255 -215z" />
    <glyph glyph-name="edieresis.ss01" horiz-adv-x="584" 
d="M190 570c-43 0 -79 35 -79 78c0 42 35 78 79 78c42 0 77 -35 77 -78s-35 -78 -77 -78zM391 570c-43 0 -78 35 -78 78c0 42 35 78 78 78c42 0 78 -35 78 -78s-35 -78 -78 -78zM556 243v-31h-382c11 -74 57 -109 118 -109c52 0 86 21 104 58h148
c-28 -109 -128 -173 -252 -173c-160 0 -268 106 -268 270c0 163 105 270 266 270s266 -111 266 -285zM288 413c-57 0 -101 -30 -113 -102h228c-11 64 -52 102 -115 102z" />
    <glyph glyph-name="edotaccent.ss01" horiz-adv-x="584" 
d="M289 570c-44 0 -80 36 -80 80c0 45 35 81 80 81c44 0 80 -36 80 -81c0 -44 -35 -80 -80 -80zM556 243v-31h-382c11 -74 57 -109 118 -109c52 0 86 21 104 58h148c-28 -109 -128 -173 -252 -173c-160 0 -268 106 -268 270c0 163 105 270 266 270s266 -111 266 -285z
M288 413c-57 0 -101 -30 -113 -102h228c-11 64 -52 102 -115 102z" />
    <glyph glyph-name="uni0123.ss01" horiz-adv-x="601" 
d="M308 571c-49 0 -78 37 -78 92v3c0 76 41 120 118 121h22v-56h-17c-27 0 -41 -12 -41 -35v-2v-1c42 -2 66 -25 66 -61c0 -33 -26 -61 -70 -61zM404 516h152v-500c0 -139 -94 -224 -264 -224c-161 0 -244 78 -250 189h154c4 -48 37 -72 99 -72c70 0 105 38 105 101v74
c-31 -45 -78 -73 -148 -73c-137 0 -228 107 -228 259c0 153 88 258 225 258c74 0 124 -31 155 -80v68zM292 136c70 0 111 47 111 134s-41 133 -111 133c-69 0 -110 -50 -110 -135c0 -86 41 -132 110 -132z" />
    <glyph glyph-name="gdotaccent.ss01" horiz-adv-x="601" 
d="M303 570c-44 0 -80 36 -80 80c0 45 35 81 80 81c44 0 80 -36 80 -81c0 -44 -35 -80 -80 -80zM404 516h152v-500c0 -139 -94 -224 -264 -224c-161 0 -244 78 -250 189h154c4 -48 37 -72 99 -72c70 0 105 38 105 101v74c-31 -45 -78 -73 -148 -73c-137 0 -228 107 -228 259
c0 153 88 258 225 258c74 0 124 -31 155 -80v68zM292 136c70 0 111 47 111 134s-41 133 -111 133c-69 0 -110 -50 -110 -135c0 -86 41 -132 110 -132z" />
    <glyph glyph-name="i.ss01" horiz-adv-x="247" 
d="M123 570c-45 0 -81 36 -81 80c0 45 36 81 81 81c44 0 80 -36 80 -81c0 -44 -36 -80 -80 -80zM45 0v516h156v-516h-156z" />
    <glyph glyph-name="idieresis.ss01" horiz-adv-x="247" 
d="M29 570c-40 0 -73 33 -73 74c0 40 33 73 73 73s74 -33 74 -73s-33 -74 -74 -74zM218 570c-40 0 -74 33 -74 74c0 40 33 73 74 73c39 0 73 -33 73 -73s-33 -74 -73 -74zM45 0v516h156v-516h-156z" />
    <glyph glyph-name="i.loclTRK.ss01" horiz-adv-x="247" 
d="M123 570c-45 0 -81 36 -81 80c0 45 36 81 81 81c44 0 80 -36 80 -81c0 -44 -36 -80 -80 -80zM45 0v516h156v-516h-156z" />
    <glyph glyph-name="ij.ss01" horiz-adv-x="494" 
d="M123 570c-45 0 -81 36 -81 80c0 45 36 81 81 81c44 0 80 -36 80 -81c0 -44 -36 -80 -80 -80zM370 570c-45 0 -81 36 -81 80c0 45 36 81 81 81c44 0 80 -36 80 -81c0 -44 -36 -80 -80 -80zM45 0v516h156v-516h-156zM275 -198c-22 0 -36 0 -51 1v119h19c30 0 49 7 49 46
v548h156v-566c0 -106 -54 -148 -173 -148z" />
    <glyph glyph-name="iogonek.ss01" horiz-adv-x="247" 
d="M123 570c-45 0 -81 36 -81 80c0 45 36 81 81 81c44 0 80 -36 80 -81c0 -44 -36 -80 -80 -80zM167 -124c12 0 26 2 38 6v-81c-14 -5 -36 -9 -60 -9c-78 0 -123 37 -123 97c0 37 23 85 83 111h-60v516h156v-516c-67 -36 -78 -67 -78 -87c0 -32 26 -37 44 -37z" />
    <glyph glyph-name="j.ss01" horiz-adv-x="247" 
d="M123 570c-45 0 -81 36 -81 80c0 45 36 81 81 81c44 0 80 -36 80 -81c0 -44 -36 -80 -80 -80zM28 -198c-22 0 -36 0 -51 1v119h19c30 0 49 7 49 46v548h156v-566c0 -106 -54 -148 -173 -148z" />
    <glyph glyph-name="uni0137.ss01" horiz-adv-x="580" 
d="M374 316l205 -316h-178l-133 213l-70 -72v-141h-153v712h153v-400l191 204h179zM299 -38c49 0 78 -37 78 -93v-2c0 -77 -41 -120 -118 -121l-22 -1v56l17 1c27 0 41 11 41 34v3c-42 2 -66 26 -66 62c0 33 26 61 70 61z" />
    <glyph glyph-name="uni013C.ss01" horiz-adv-x="247" 
d="M45 712h156v-712h-156v712zM123 -38c49 0 78 -37 78 -93v-2c0 -77 -41 -120 -118 -121l-22 -1v56l17 1c27 0 41 11 41 34v3c-42 2 -66 26 -66 62c0 33 26 61 70 61z" />
    <glyph glyph-name="ldot.ss01" horiz-adv-x="504" 
d="M45 0v712h156v-712h-156zM373 257c-56 0 -100 43 -100 98c0 53 44 96 100 96c53 0 97 -43 97 -96c0 -55 -44 -98 -97 -98z" />
    <glyph glyph-name="napostrophe.ss01" horiz-adv-x="795" 
d="M118 716c69 0 103 -53 103 -127c0 -112 -49 -194 -175 -197l-4 -1v80h6c46 2 66 24 72 70h-1c-51 0 -90 33 -90 86s39 89 89 89zM570 528c103 0 179 -62 179 -190v-338h-156v307c0 57 -25 88 -83 88c-48 0 -97 -31 -97 -107v-288h-156v516h152v-72c34 48 87 84 161 84z
" />
    <glyph glyph-name="uni0146.ss01" horiz-adv-x="583" 
d="M359 528c102 0 179 -62 179 -190v-338h-156v307c0 57 -25 88 -83 88c-48 0 -98 -31 -98 -107v-288h-156v516h152v-73c34 48 87 85 162 85zM290 -38c49 0 78 -37 78 -93v-2c0 -77 -41 -120 -118 -121l-22 -1v56l17 1c27 0 41 11 41 34v3c-42 2 -66 26 -66 62
c0 33 26 61 70 61z" />
    <glyph glyph-name="odieresis.ss01" horiz-adv-x="589" 
d="M195 570c-43 0 -79 35 -79 78c0 42 35 78 79 78c42 0 77 -35 77 -78s-35 -78 -77 -78zM396 570c-43 0 -78 35 -78 78c0 42 35 78 78 78c42 0 78 -35 78 -78s-35 -78 -78 -78zM295 -12c-165 0 -271 106 -271 270s106 270 271 270c164 0 270 -106 270 -270
s-106 -270 -270 -270zM295 113c69 0 112 47 112 145s-43 145 -112 145c-70 0 -113 -47 -113 -145s43 -145 113 -145z" />
    <glyph glyph-name="uni0157.ss01" horiz-adv-x="399" 
d="M344 524c12 0 23 -1 34 -2v-142h-40c-87 0 -137 -43 -137 -140v-240h-156v516h152v-96c22 64 70 104 147 104zM123 -38c49 0 78 -37 78 -93v-2c0 -77 -41 -120 -118 -121l-22 -1v56l17 1c27 0 41 11 41 34v3c-42 2 -66 26 -66 62c0 33 26 61 70 61z" />
    <glyph glyph-name="uni0219.ss01" horiz-adv-x="520" 
d="M327 312c122 -19 181 -68 181 -160c0 -107 -91 -167 -246 -167c-158 0 -239 51 -248 179h152c6 -56 34 -75 99 -75c63 0 87 19 87 50s-19 46 -89 57l-67 11c-109 17 -174 66 -174 158c0 103 81 163 232 163c174 0 235 -76 240 -177h-145c-2 56 -39 73 -95 73
s-79 -19 -79 -49c0 -31 25 -44 75 -52zM263 -53c49 0 78 -37 78 -93v-2c0 -77 -41 -120 -118 -121l-22 -1v56l17 1c27 0 41 11 41 34v3c-42 2 -66 26 -66 62c0 33 26 61 70 61z" />
    <glyph glyph-name="uni021B.ss01" horiz-adv-x="364" 
d="M343 402h-99v-241c0 -38 19 -45 59 -45h40v-116c-24 -3 -49 -4 -72 -4c-129 0 -183 42 -183 148v258h-77v114h77v153h156v-153h99v-114zM214 -38c49 0 78 -37 78 -93v-2c0 -77 -41 -120 -118 -121l-22 -1v56l17 1c27 0 41 11 41 34v3c-42 2 -66 26 -66 62
c0 33 26 61 70 61z" />
    <glyph glyph-name="udieresis.ss01" horiz-adv-x="583" 
d="M187 570c-43 0 -79 35 -79 78c0 42 35 78 79 78c42 0 77 -35 77 -78s-35 -78 -77 -78zM388 570c-43 0 -78 35 -78 78c0 42 35 78 78 78c42 0 78 -35 78 -78s-35 -78 -78 -78zM382 516h156v-516h-152v73c-34 -48 -86 -85 -162 -85c-102 0 -179 62 -179 190v338h156v-307
c0 -57 25 -88 83 -88c48 0 98 31 98 107v288z" />
    <glyph glyph-name="wdieresis.ss01" horiz-adv-x="858" 
d="M329 570c-43 0 -79 35 -79 78c0 42 35 78 79 78c42 0 77 -35 77 -78s-35 -78 -77 -78zM530 570c-43 0 -78 35 -78 78c0 42 35 78 78 78c42 0 78 -35 78 -78s-35 -78 -78 -78zM689 516h167l-168 -516h-164l-57 194c-14 46 -27 93 -39 139c-11 -46 -24 -93 -37 -139
l-57 -194h-164l-169 516h168l48 -166c17 -58 33 -116 48 -174c14 58 29 116 45 175l47 165h144l47 -165c16 -59 31 -117 45 -175c15 58 31 116 48 174z" />
    <glyph glyph-name="ydieresis.ss01" horiz-adv-x="551" 
d="M176 570c-43 0 -79 35 -79 78c0 42 35 78 79 78c42 0 77 -35 77 -78s-35 -78 -77 -78zM377 570c-43 0 -78 35 -78 78c0 42 35 78 78 78c42 0 78 -35 78 -78s-35 -78 -78 -78zM389 516h161l-187 -536c-45 -130 -104 -177 -257 -177c-30 0 -45 1 -61 2v120h50
c58 0 78 33 78 72c0 29 -12 66 -24 100l-148 419h168l23 -73c30 -101 60 -207 88 -325c28 119 57 224 86 324z" />
    <glyph glyph-name="zdotaccent.ss01" horiz-adv-x="507" 
d="M254 570c-44 0 -80 36 -80 80c0 45 35 81 80 81c44 0 80 -36 80 -81c0 -44 -35 -80 -80 -80zM327 116h153v-116h-452v98l183 226c21 26 42 51 64 77c-35 -1 -69 -1 -104 -1h-141v116h440v-98l-183 -226c-21 -26 -42 -51 -64 -77c35 1 69 1 104 1z" />
    <glyph glyph-name="a.ss02" horiz-adv-x="594" 
d="M392 516h157v-516h-152v67c-30 -49 -78 -79 -148 -79c-144 0 -225 106 -225 270s81 270 225 270c66 0 112 -27 143 -72v60zM288 113c70 0 107 47 107 145s-37 145 -107 145c-69 0 -106 -51 -106 -149s37 -141 106 -141z" />
    <glyph glyph-name="aacute.ss02" horiz-adv-x="594" 
d="M493 719l-134 -144h-124l88 144h170zM392 516h157v-516h-152v67c-30 -49 -78 -79 -148 -79c-144 0 -225 106 -225 270s81 270 225 270c66 0 112 -27 143 -72v60zM288 113c70 0 107 47 107 145s-37 145 -107 145c-69 0 -106 -51 -106 -149s37 -141 106 -141z" />
    <glyph glyph-name="abreve.ss02" horiz-adv-x="594" 
d="M292 570c-94 0 -162 56 -178 149h113c5 -36 28 -57 65 -57c36 0 60 21 65 57h113c-17 -93 -84 -149 -178 -149zM392 516h157v-516h-152v67c-30 -49 -78 -79 -148 -79c-144 0 -225 106 -225 270s81 270 225 270c66 0 112 -27 143 -72v60zM288 113c70 0 107 47 107 145
s-37 145 -107 145c-69 0 -106 -51 -106 -149s37 -141 106 -141z" />
    <glyph glyph-name="acircumflex.ss02" horiz-adv-x="594" 
d="M292 643l-66 -68h-140l118 144h173l119 -144h-139zM392 516h157v-516h-152v67c-30 -49 -78 -79 -148 -79c-144 0 -225 106 -225 270s81 270 225 270c66 0 112 -27 143 -72v60zM288 113c70 0 107 47 107 145s-37 145 -107 145c-69 0 -106 -51 -106 -149s37 -141 106 -141z
" />
    <glyph glyph-name="adieresis.ss02" horiz-adv-x="594" 
d="M262 707v-132h-150v132h150zM472 707v-132h-150v132h150zM392 516h157v-516h-152v67c-30 -49 -78 -79 -148 -79c-144 0 -225 106 -225 270s81 270 225 270c66 0 112 -27 143 -72v60zM288 113c70 0 107 47 107 145s-37 145 -107 145c-69 0 -106 -51 -106 -149
s37 -141 106 -141z" />
    <glyph glyph-name="agrave.ss02" horiz-adv-x="594" 
d="M357 575h-124l-134 144h170zM392 516h157v-516h-152v67c-30 -49 -78 -79 -148 -79c-144 0 -225 106 -225 270s81 270 225 270c66 0 112 -27 143 -72v60zM288 113c70 0 107 47 107 145s-37 145 -107 145c-69 0 -106 -51 -106 -149s37 -141 106 -141z" />
    <glyph glyph-name="amacron.ss02" horiz-adv-x="594" 
d="M460 677v-102h-336v102h336zM392 516h157v-516h-152v67c-30 -49 -78 -79 -148 -79c-144 0 -225 106 -225 270s81 270 225 270c66 0 112 -27 143 -72v60zM288 113c70 0 107 47 107 145s-37 145 -107 145c-69 0 -106 -51 -106 -149s37 -141 106 -141z" />
    <glyph glyph-name="aogonek.ss02" horiz-adv-x="594" 
d="M549 0c-81 -36 -97 -66 -97 -88c0 -30 29 -36 50 -36c16 0 32 3 47 7v-82c-17 -5 -44 -9 -72 -9c-88 0 -140 38 -140 97c0 37 28 84 101 111h-41v67c-30 -49 -78 -79 -148 -79c-144 0 -225 106 -225 270s81 270 225 270c66 0 112 -27 143 -72v60h157v-516zM288 113
c70 0 107 47 107 145s-37 145 -107 145c-69 0 -106 -51 -106 -149s37 -141 106 -141z" />
    <glyph glyph-name="aring.ss02" horiz-adv-x="594" 
d="M292 571c-86 0 -154 60 -154 146c0 85 68 145 154 145s154 -60 154 -145c0 -86 -68 -146 -154 -146zM292 775c-33 0 -59 -25 -59 -58s26 -58 59 -58s59 25 59 58s-26 58 -59 58zM392 516h157v-516h-152v67c-30 -49 -78 -79 -148 -79c-144 0 -225 106 -225 270
s81 270 225 270c66 0 112 -27 143 -72v60zM288 113c70 0 107 47 107 145s-37 145 -107 145c-69 0 -106 -51 -106 -149s37 -141 106 -141z" />
    <glyph glyph-name="aringacute.ss02" horiz-adv-x="594" 
d="M493 1049l-134 -144h-124l88 144h170zM292 571c-86 0 -154 60 -154 146c0 85 68 145 154 145s154 -60 154 -145c0 -86 -68 -146 -154 -146zM292 775c-33 0 -59 -25 -59 -58s26 -58 59 -58s59 25 59 58s-26 58 -59 58zM392 516h157v-516h-152v67c-30 -49 -78 -79 -148 -79
c-144 0 -225 106 -225 270s81 270 225 270c66 0 112 -27 143 -72v60zM288 113c70 0 107 47 107 145s-37 145 -107 145c-69 0 -106 -51 -106 -149s37 -141 106 -141z" />
    <glyph glyph-name="atilde.ss02" horiz-adv-x="594" 
d="M227 612c-18 0 -27 -11 -28 -37h-95c0 99 48 138 107 138c34 0 63 -11 86 -20c21 -9 40 -16 60 -16c18 0 27 10 28 36h95c0 -98 -48 -138 -107 -138c-32 0 -60 11 -87 21c-20 8 -41 16 -59 16zM392 516h157v-516h-152v67c-30 -49 -78 -79 -148 -79
c-144 0 -225 106 -225 270s81 270 225 270c66 0 112 -27 143 -72v60zM288 113c70 0 107 47 107 145s-37 145 -107 145c-69 0 -106 -51 -106 -149s37 -141 106 -141z" />
    <glyph glyph-name="adieresis.ss01.ss02" horiz-adv-x="594" 
d="M192 570c-43 0 -79 35 -79 78c0 42 35 78 79 78c42 0 77 -35 77 -78s-35 -78 -77 -78zM393 570c-43 0 -78 35 -78 78c0 42 35 78 78 78c42 0 78 -35 78 -78s-35 -78 -78 -78zM392 516h157v-516h-152v67c-30 -49 -78 -79 -148 -79c-144 0 -225 106 -225 270
s81 270 225 270c66 0 112 -27 143 -72v60zM288 113c70 0 107 47 107 145s-37 145 -107 145c-69 0 -106 -51 -106 -149s37 -141 106 -141z" />
    <glyph glyph-name="uni021B.ss01.ss05" horiz-adv-x="347" 
d="M326 516v-114h-82v-402h-156v402h-77v114h77v153h156v-153h82zM166 -38c49 0 78 -37 78 -93v-2c0 -77 -41 -120 -118 -121l-22 -1v56l17 1c27 0 41 11 41 34v3c-42 2 -66 26 -66 62c0 33 26 61 70 61z" />
    <glyph glyph-name="udieresis.ss01.ss05" horiz-adv-x="583" 
d="M187 570c-43 0 -79 35 -79 78c0 42 35 78 79 78c42 0 77 -35 77 -78s-35 -78 -77 -78zM388 570c-43 0 -78 35 -78 78c0 42 35 78 78 78c42 0 78 -35 78 -78s-35 -78 -78 -78zM382 516h156v-516h-152v73c-34 -48 -86 -85 -162 -85c-102 0 -179 62 -179 190v338h156v-307
c0 -57 25 -88 83 -88c48 0 98 31 98 107v288z" />
    <glyph glyph-name="t.ss05" horiz-adv-x="347" 
d="M326 516v-114h-82v-402h-156v402h-77v114h77v153h156v-153h82z" />
    <glyph glyph-name="tbar.ss05" horiz-adv-x="347" 
d="M326 402h-82v-90h81v-87h-81v-225h-156v225h-75v87h75v90h-77v114h77v153h156v-153h82v-114z" />
    <glyph glyph-name="tcaron.ss05" horiz-adv-x="347" 
d="M302 712h153l-77 -166h-103zM244 669v-153h82v-114h-82v-402h-156v402h-77v114h77v153h156z" />
    <glyph glyph-name="uni0163.ss05" horiz-adv-x="347" 
d="M244 0h-38l-38 -44c6 1 11 1 16 1c67 0 105 -34 105 -78c0 -55 -44 -97 -154 -97c-22 0 -52 3 -70 7v56c19 -3 34 -4 56 -4c42 0 61 16 61 40s-18 36 -57 36c-7 0 -13 0 -24 -1v38l36 46h-49v402h-77v114h77v153h156v-153h82v-114h-82v-402z" />
    <glyph glyph-name="uni021B.ss05" horiz-adv-x="347" 
d="M326 516v-114h-82v-402h-156v402h-77v114h77v153h156v-153h82zM98 -169v110h138v-117c0 -64 -37 -92 -114 -93h-24v53l23 1c24 0 37 11 37 37v9h-60z" />
    <glyph glyph-name="udieresis.ss01.ss06" horiz-adv-x="585" 
d="M193 570c-43 0 -79 35 -79 78c0 42 35 78 79 78c42 0 77 -35 77 -78s-35 -78 -77 -78zM394 570c-43 0 -78 35 -78 78c0 42 35 78 78 78c42 0 78 -35 78 -78s-35 -78 -78 -78zM292 -12c-149 0 -247 87 -247 233v295h157v-297c0 -68 41 -98 90 -98s90 30 90 98v297h157
v-295c0 -146 -99 -233 -247 -233z" />
    <glyph glyph-name="u.ss06" horiz-adv-x="585" 
d="M292 -12c-149 0 -247 87 -247 233v295h157v-297c0 -68 41 -98 90 -98s90 30 90 98v297h157v-295c0 -146 -99 -233 -247 -233z" />
    <glyph glyph-name="uacute.ss06" horiz-adv-x="585" 
d="M236 575l88 144h170l-134 -144h-124zM292 -12c-149 0 -247 87 -247 233v295h157v-297c0 -68 41 -98 90 -98s90 30 90 98v297h157v-295c0 -146 -99 -233 -247 -233z" />
    <glyph glyph-name="ubreve.ss06" horiz-adv-x="585" 
d="M293 570c-94 0 -162 56 -178 149h113c5 -36 28 -57 65 -57c36 0 60 21 65 57h113c-17 -93 -84 -149 -178 -149zM292 -12c-149 0 -247 87 -247 233v295h157v-297c0 -68 41 -98 90 -98s90 30 90 98v297h157v-295c0 -146 -99 -233 -247 -233z" />
    <glyph glyph-name="ucircumflex.ss06" horiz-adv-x="585" 
d="M293 643l-66 -68h-140l118 144h173l119 -144h-139zM382 516h157v-295c0 -146 -99 -233 -247 -233c-149 0 -247 87 -247 233v295h157v-297c0 -68 41 -98 90 -98s90 30 90 98v297z" />
    <glyph glyph-name="udieresis.ss06" horiz-adv-x="585" 
d="M112 575v132h150v-132h-150zM322 575v132h150v-132h-150zM292 -12c-149 0 -247 87 -247 233v295h157v-297c0 -68 41 -98 90 -98s90 30 90 98v297h157v-295c0 -146 -99 -233 -247 -233z" />
    <glyph glyph-name="ugrave.ss06" horiz-adv-x="585" 
d="M233 575l-134 144h170l88 -144h-124zM292 -12c-149 0 -247 87 -247 233v295h157v-297c0 -68 41 -98 90 -98s90 30 90 98v297h157v-295c0 -146 -99 -233 -247 -233z" />
    <glyph glyph-name="uhungarumlaut.ss06" horiz-adv-x="585" 
d="M128 575l88 144h171l-140 -144h-119zM351 575l89 144h170l-139 -144h-120zM292 -12c-149 0 -247 87 -247 233v295h157v-297c0 -68 41 -98 90 -98s90 30 90 98v297h157v-295c0 -146 -99 -233 -247 -233z" />
    <glyph glyph-name="umacron.ss06" horiz-adv-x="585" 
d="M125 575v102h336v-102h-336zM292 -12c-149 0 -247 87 -247 233v295h157v-297c0 -68 41 -98 90 -98s90 30 90 98v297h157v-295c0 -146 -99 -233 -247 -233z" />
    <glyph glyph-name="uogonek.ss06" horiz-adv-x="585" 
d="M382 516h157v-295c0 -113 -60 -191 -155 -220c-64 -32 -78 -59 -78 -79c0 -30 29 -36 50 -36c16 0 32 3 47 7v-82c-17 -5 -44 -9 -72 -9c-88 0 -140 38 -140 97c0 29 17 64 61 91c-126 15 -207 99 -207 231v295h157v-297c0 -68 41 -98 90 -98s90 30 90 98v297z" />
    <glyph glyph-name="uring.ss06" horiz-adv-x="585" 
d="M293 571c-86 0 -154 60 -154 146c0 85 68 145 154 145s154 -60 154 -145c0 -86 -68 -146 -154 -146zM293 659c33 0 59 25 59 58s-26 58 -59 58s-59 -25 -59 -58s26 -58 59 -58zM292 -12c-149 0 -247 87 -247 233v295h157v-297c0 -68 41 -98 90 -98s90 30 90 98v297h157
v-295c0 -146 -99 -233 -247 -233z" />
    <glyph glyph-name="utilde.ss06" horiz-adv-x="585" 
d="M104 575c0 99 48 138 107 138c34 0 63 -11 86 -20c21 -9 40 -16 60 -16c18 0 27 10 28 36h95c0 -98 -48 -138 -107 -138c-32 0 -60 11 -87 21c-20 8 -41 16 -59 16s-27 -11 -28 -37h-95zM292 -12c-149 0 -247 87 -247 233v295h157v-297c0 -68 41 -98 90 -98s90 30 90 98
v297h157v-295c0 -146 -99 -233 -247 -233z" />
    <glyph glyph-name="ydieresis.ss01.ss07" horiz-adv-x="551" 
d="M180 570c-43 0 -79 35 -79 78c0 42 35 78 79 78c42 0 77 -35 77 -78s-35 -78 -77 -78zM381 570c-43 0 -78 35 -78 78c0 42 35 78 78 78c42 0 78 -35 78 -78s-35 -78 -78 -78zM389 516h161l-196 -481l-92 -231h-150l87 214l-198 498h168l24 -67c29 -88 56 -176 82 -263
c33 93 65 186 87 253z" />
    <glyph glyph-name="y.ss07" horiz-adv-x="551" 
d="M389 516h161l-196 -481l-92 -231h-150l87 214l-198 498h168l24 -67c29 -88 56 -176 82 -263c33 93 65 186 87 253z" />
    <glyph glyph-name="yacute.ss07" horiz-adv-x="551" 
d="M481 719l-134 -144h-124l88 144h170zM389 516h161l-196 -481l-92 -231h-150l87 214l-198 498h168l24 -67c29 -88 56 -176 82 -263c33 93 65 186 87 253z" />
    <glyph glyph-name="ycircumflex.ss07" horiz-adv-x="551" 
d="M280 643l-66 -68h-140l118 144h173l119 -144h-139zM389 516h161l-196 -481l-92 -231h-150l87 214l-198 498h168l24 -67c29 -88 56 -176 82 -263c33 93 65 186 87 253z" />
    <glyph glyph-name="ydieresis.ss07" horiz-adv-x="551" 
d="M249 707v-132h-150v132h150zM459 707v-132h-150v132h150zM389 516h161l-196 -481l-92 -231h-150l87 214l-198 498h168l24 -67c29 -88 56 -176 82 -263c33 93 65 186 87 253z" />
    <glyph glyph-name="ygrave.ss07" horiz-adv-x="551" 
d="M344 575h-124l-134 144h170zM389 516h161l-196 -481l-92 -231h-150l87 214l-198 498h168l24 -67c29 -88 56 -176 82 -263c33 93 65 186 87 253z" />
    <glyph glyph-name="l.ss08" horiz-adv-x="296" 
d="M218 -4c-121 0 -173 42 -173 148v568h156v-551c0 -38 17 -45 50 -45h35v-116c-23 -3 -46 -4 -68 -4z" />
    <glyph glyph-name="lacute.ss08" horiz-adv-x="296" 
d="M63 755l88 144h170l-134 -144h-124zM218 -4c-121 0 -173 42 -173 148v568h156v-551c0 -38 17 -45 50 -45h35v-116c-23 -3 -46 -4 -68 -4z" />
    <glyph glyph-name="lcaron.ss08" horiz-adv-x="407" 
d="M218 -4c-121 0 -173 42 -173 148v568h156v-551c0 -38 17 -45 50 -45h35v-116c-23 -3 -46 -4 -68 -4zM237 546l27 166h153l-77 -166h-103z" />
    <glyph glyph-name="uni013C.ss08" horiz-adv-x="296" 
d="M251 116h35v-116c-23 -3 -46 -4 -68 -4c-121 0 -173 42 -173 148v568h156v-551c0 -38 17 -45 50 -45zM55 -169v110h138v-117c0 -64 -37 -92 -114 -93h-24v53l23 1c24 0 37 11 37 37v9h-60z" />
    <glyph glyph-name="ldot.ss08" horiz-adv-x="494" 
d="M218 -4c-121 0 -173 42 -173 148v568h156v-551c0 -38 17 -45 50 -45h35v-116c-23 -3 -46 -4 -68 -4zM283 268v172h177v-172h-177z" />
    <glyph glyph-name="lslash.ss08" horiz-adv-x="326" 
d="M282 116h34v-116c-22 -3 -45 -4 -67 -4c-121 0 -173 42 -173 148v128l-76 -35v99l76 35v341h156v-271l76 35v-99l-76 -35v-181c0 -38 17 -45 50 -45z" />
    <glyph glyph-name="uni013C.ss01.ss08" horiz-adv-x="296" 
d="M251 116h35v-116c-23 -3 -46 -4 -68 -4c-121 0 -173 42 -173 148v568h156v-551c0 -38 17 -45 50 -45zM123 -38c49 0 78 -37 78 -93v-2c0 -77 -41 -120 -118 -121l-22 -1v56l17 1c27 0 41 11 41 34v3c-42 2 -66 26 -66 62c0 33 26 61 70 61z" />
    <glyph glyph-name="ldot.ss01.ss08" horiz-adv-x="504" 
d="M218 -4c-121 0 -173 42 -173 148v568h156v-551c0 -38 17 -45 50 -45h35v-116c-23 -3 -46 -4 -68 -4zM373 257c-56 0 -100 43 -100 98c0 53 44 96 100 96c53 0 97 -43 97 -96c0 -55 -44 -98 -97 -98z" />
    <glyph glyph-name="fi.ss01" horiz-adv-x="613" 
d="M489 570c-45 0 -81 36 -81 80c0 45 36 81 81 81c44 0 80 -36 80 -81c0 -44 -36 -80 -80 -80zM88 546c0 91 48 170 186 170c24 0 52 -2 74 -4v-116h-42c-44 0 -62 -20 -62 -55v-25h102v-114h-102v-402h-156v402h-77v114h77v30zM411 0v516h156v-516h-156z" />
    <glyph glyph-name="fl.ss08" horiz-adv-x="656" 
d="M88 546c0 91 48 170 186 170c24 0 52 -2 74 -4v-116h-42c-44 0 -62 -20 -62 -55v-25h102v-114h-102v-402h-156v402h-77v114h77v30zM611 116h35v-116c-23 -3 -46 -4 -68 -4c-121 0 -173 42 -173 148v568h156v-551c0 -38 17 -45 50 -45z" />
    <glyph glyph-name="ordfeminine" unicode="&#xaa;" horiz-adv-x="489" 
d="M460 262h-135c-5 17 -8 33 -10 51c-28 -39 -76 -61 -140 -61c-95 0 -165 48 -165 135c0 89 53 132 177 143l67 7c41 3 56 14 56 42c0 26 -13 44 -66 44c-52 0 -72 -13 -76 -61h-136c6 100 64 159 213 159c141 0 201 -53 201 -138v-232c0 -27 3 -61 14 -89zM216 347
c50 0 94 26 94 94v29c-10 -10 -24 -13 -42 -15l-53 -5c-39 -4 -64 -18 -64 -53c0 -30 23 -50 65 -50z" />
    <glyph glyph-name="ordmasculine" unicode="&#xba;" horiz-adv-x="509" 
d="M254 252c-143 0 -236 92 -236 234c0 143 93 235 236 235c144 0 237 -92 237 -235c0 -142 -93 -234 -237 -234zM254 362c60 0 97 41 97 124c0 85 -38 125 -97 125s-96 -41 -96 -125c0 -83 37 -124 96 -124z" />
    <glyph glyph-name="ordfeminine.ss02" horiz-adv-x="503" 
d="M344 712h139v-450h-134v60c-27 -43 -70 -70 -131 -70c-126 0 -200 92 -200 234s74 235 200 235c58 0 99 -24 126 -63v54zM252 362c59 0 95 40 95 124c0 85 -36 125 -95 125c-58 0 -94 -44 -94 -128c0 -85 36 -121 94 -121z" />
    <glyph glyph-name="h.sups" unicode="&#x2b0;" horiz-adv-x="469" 
d="M292 721c96 0 158 -61 158 -169v-290h-139v268c0 44 -19 73 -71 73c-40 0 -82 -26 -82 -90v-251h-139v619h139v-229c28 38 71 69 134 69z" />
    <glyph glyph-name="n.sups" unicode="&#x207f;" horiz-adv-x="469" 
d="M292 721c96 0 158 -61 158 -169v-290h-139v268c0 44 -19 73 -71 73c-40 0 -82 -26 -82 -90v-251h-139v450h135v-66c28 41 72 75 138 75z" />
    <glyph glyph-name="r.sups" unicode="&#x2b3;" horiz-adv-x="325" 
d="M280 719c12 0 22 -1 30 -2v-126h-35c-69 0 -117 -31 -117 -119v-210h-139v450h135v-82c19 54 61 89 126 89z" />
    <glyph glyph-name="s.sups" unicode="&#x2e2;" horiz-adv-x="459" 
d="M231 249c-141 0 -209 44 -217 156h135c5 -48 26 -63 85 -63c53 0 72 15 72 40c0 27 -16 39 -76 49l-64 9c-97 15 -145 60 -145 139c0 90 71 142 205 142c149 0 203 -66 207 -155h-129c-2 50 -35 63 -79 63c-50 0 -68 -17 -68 -42c0 -27 21 -38 63 -44l66 -9
c102 -15 159 -54 159 -140c0 -92 -80 -145 -214 -145z" />
    <glyph glyph-name="uni0394" unicode="&#x394;" horiz-adv-x="692" 
d="M443 712l224 -571v-141h-642v141l217 571h201zM283 387l-86 -239h293l-88 239c-19 52 -41 116 -60 177c-19 -61 -40 -125 -59 -177z" />
    <glyph glyph-name="uni03A9" unicode="&#x3a9;" horiz-adv-x="789" 
d="M24 0v146h145v3c-90 63 -138 149 -138 261c0 190 137 318 361 318c227 0 366 -128 366 -318c0 -112 -48 -198 -137 -261v-3h144v-146h-329v130c99 46 150 136 150 245c0 141 -77 206 -190 206c-114 0 -193 -65 -193 -206c0 -109 53 -199 151 -245v-130h-330z" />
    <glyph glyph-name="uni03BC" unicode="&#x3bc;" horiz-adv-x="584" 
d="M382 516h157v-516h-153v72c-37 -53 -89 -84 -156 -84c-11 0 -21 1 -31 4v-188h-154v712h157v-307c0 -57 25 -88 83 -88c48 0 97 31 97 107v288z" />
    <glyph glyph-name="pi" unicode="&#x3c0;" horiz-adv-x="645" 
d="M624 402h-77v-256c0 -21 6 -35 31 -35c7 0 21 0 33 1v-112c-21 -3 -55 -4 -76 -4c-111 0 -144 38 -144 138v268h-147v-402h-156v402h-77v114h613v-114z" />
    <glyph glyph-name="d.sups" unicode="&#x1d48;" horiz-adv-x="503" 
d="M344 881h139v-619h-134v61c-27 -44 -71 -71 -134 -71c-123 0 -197 92 -197 234s74 235 197 235c59 0 101 -24 129 -63v223zM252 362c59 0 95 40 95 124c0 85 -36 125 -95 125c-58 0 -94 -44 -94 -128c0 -85 36 -121 94 -121z" />
    <glyph glyph-name="n.subs" unicode="&#x2099;" horiz-adv-x="469" 
d="M292 263c96 0 158 -61 158 -169v-290h-139v268c0 44 -19 73 -71 73c-40 0 -82 -26 -82 -90v-251h-139v450h135v-66c28 41 72 75 138 75z" />
    <glyph glyph-name="t.sups.ss05" horiz-adv-x="297" 
d="M285 712v-101h-69v-349h-138v349h-66v101h66v133h138v-133h69z" />
    <glyph glyph-name="t.sups" unicode="&#x1d57;" horiz-adv-x="313" 
d="M301 611h-85v-206c0 -30 12 -38 50 -38h35v-103c-21 -2 -45 -4 -63 -4c-123 0 -160 47 -160 129v222h-66v101h66v133h138v-133h85v-101z" />
    <glyph glyph-name="uni24FF" unicode="&#x24ff;" horiz-adv-x="956" 
d="M478 -107c-268 0 -478 205 -478 463s210 463 478 463s478 -205 478 -463s-210 -463 -478 -463zM478 122c126 0 193 81 193 234c0 154 -66 235 -193 235s-193 -81 -193 -235s67 -234 193 -234zM479 216c-53 0 -76 43 -76 140c0 98 23 141 76 141c52 0 74 -43 74 -141
s-22 -140 -74 -140z" />
    <glyph glyph-name="uni2776" unicode="&#x2776;" horiz-adv-x="956" 
d="M478 -107c-268 0 -478 205 -478 463s210 463 478 463s478 -205 478 -463s-210 -463 -478 -463zM438 132h114v449h-90c-24 -70 -75 -81 -124 -81v-77h100v-291z" />
    <glyph glyph-name="uni2777" unicode="&#x2777;" horiz-adv-x="956" 
d="M478 -107c-268 0 -478 205 -478 463s210 463 478 463s478 -205 478 -463s-210 -463 -478 -463zM302 151h353v93h-220c6 29 29 46 62 61l26 12c88 40 132 80 132 157c0 79 -64 135 -169 135c-108 0 -165 -59 -175 -160h109c3 43 25 67 65 67c37 0 57 -18 57 -51
c0 -28 -22 -48 -67 -68l-35 -15c-102 -47 -132 -119 -136 -189z" />
    <glyph glyph-name="uni2778" unicode="&#x2778;" horiz-adv-x="956" 
d="M478 -107c-268 0 -478 205 -478 463s210 463 478 463s478 -205 478 -463s-210 -463 -478 -463zM483 122c109 0 179 57 179 142c0 50 -28 90 -76 107c40 20 64 56 64 95c0 77 -63 125 -168 125c-111 0 -170 -48 -176 -145h108c5 40 25 56 67 56c39 0 61 -17 61 -47
c0 -35 -20 -50 -64 -50h-34v-80h32c47 0 71 -19 71 -56c0 -33 -26 -54 -67 -54c-54 0 -77 22 -78 76h-108c2 -110 67 -169 189 -169z" />
    <glyph glyph-name="uni2779" unicode="&#x2779;" horiz-adv-x="956" 
d="M478 -107c-268 0 -478 205 -478 463s210 463 478 463s478 -205 478 -463s-210 -463 -478 -463zM479 135h113v93h56v90h-56v265h-117l-202 -244v-111h206v-93zM355 318l127 154v-154h-127z" />
    <glyph glyph-name="uni277A" unicode="&#x277a;" horiz-adv-x="956" 
d="M478 -107c-268 0 -478 205 -478 463s210 463 478 463s478 -205 478 -463s-210 -463 -478 -463zM478 116c106 0 179 63 179 158c0 79 -49 149 -156 149c-30 0 -56 -7 -76 -20l14 77h197v93h-284l-43 -262h105c12 22 35 35 64 35c43 0 73 -30 73 -72s-29 -71 -73 -71
c-35 0 -61 19 -68 51h-109c9 -84 78 -138 177 -138z" />
    <glyph glyph-name="uni277B" unicode="&#x277b;" horiz-adv-x="956" 
d="M478 -107c-268 0 -478 205 -478 463s210 463 478 463s478 -205 478 -463s-210 -463 -478 -463zM478 122c107 0 178 64 178 159c0 79 -54 150 -157 150c-44 0 -80 -15 -104 -40v5c7 81 31 111 84 111c32 0 55 -15 64 -42h106c-13 80 -75 126 -168 126
c-124 0 -190 -84 -190 -239c0 -96 25 -162 75 -197c28 -21 69 -33 112 -33zM478 210c-42 0 -70 28 -70 69c0 40 28 69 70 69c43 0 72 -29 72 -69c0 -41 -29 -69 -72 -69z" />
    <glyph glyph-name="uni277C" unicode="&#x277c;" horiz-adv-x="956" 
d="M478 -107c-268 0 -478 205 -478 463s210 463 478 463s478 -205 478 -463s-210 -463 -478 -463zM387 120h122c1 176 46 268 131 356v93h-321v-94h214c-77 -80 -143 -206 -146 -355z" />
    <glyph glyph-name="uni277D" unicode="&#x277d;" horiz-adv-x="956" 
d="M478 -107c-268 0 -478 205 -478 463s210 463 478 463s478 -205 478 -463s-210 -463 -478 -463zM478 122c114 0 187 55 187 138c0 53 -25 89 -76 109c36 21 55 54 55 96c0 78 -62 126 -166 126c-103 0 -166 -48 -166 -126c0 -41 20 -76 56 -96c-51 -20 -76 -56 -76 -109
c0 -83 73 -138 186 -138zM478 402c-41 0 -65 20 -65 54s25 54 65 54c41 0 65 -20 65 -54s-24 -54 -65 -54zM478 209c-48 0 -75 21 -75 60c0 40 28 63 75 63c48 0 76 -23 76 -63c0 -39 -27 -60 -76 -60z" />
    <glyph glyph-name="uni277E" unicode="&#x277e;" horiz-adv-x="956" 
d="M478 -107c-268 0 -478 205 -478 463s210 463 478 463s478 -205 478 -463s-210 -463 -478 -463zM480 120c120 0 193 77 193 241c0 91 -23 161 -77 199c-29 21 -70 33 -114 33c-105 0 -181 -62 -181 -161c0 -79 56 -153 161 -153c39 0 72 12 96 33l4 4c0 -1 0 -3 -1 -9
c-7 -73 -33 -98 -80 -98c-27 0 -52 10 -61 42h-112c13 -86 79 -131 172 -131zM482 368c-41 0 -68 28 -68 67c0 37 27 65 68 65s68 -28 68 -65c0 -39 -27 -67 -68 -67z" />
    <glyph glyph-name="uni24EA" unicode="&#x24ea;" horiz-adv-x="956" 
d="M478 -107c-268 0 -478 205 -478 463s210 463 478 463s478 -205 478 -463s-210 -463 -478 -463zM479 13c197 0 348 149 348 343s-151 343 -348 343s-349 -149 -349 -343s152 -343 349 -343zM478 120c-131 0 -196 84 -196 236c0 153 65 238 196 238s196 -85 196 -238
c0 -152 -65 -236 -196 -236zM478 220c46 0 71 32 71 136c0 105 -25 138 -71 138c-45 0 -71 -31 -71 -138c0 -105 26 -136 71 -136z" />
    <glyph glyph-name="uni2460" unicode="&#x2460;" horiz-adv-x="956" 
d="M478 819c268 0 478 -205 478 -463s-210 -463 -478 -463s-478 205 -478 463s210 463 478 463zM479 13c197 0 348 149 348 343s-151 343 -348 343s-349 -149 -349 -343s152 -343 349 -343zM554 584v-455h-119v294c-32 -3 -67 -3 -101 -3v83c49 1 101 9 125 81h95z" />
    <glyph glyph-name="uni2461" unicode="&#x2461;" horiz-adv-x="956" 
d="M478 819c268 0 478 -205 478 -463s-210 -463 -478 -463s-478 205 -478 463s210 463 478 463zM479 13c197 0 348 149 348 343s-151 343 -348 343s-349 -149 -349 -343s152 -343 349 -343zM495 301c-31 -14 -48 -28 -54 -50h219v-101h-360l3 46c4 70 36 143 137 191l35 16
c46 21 65 39 65 65c0 33 -21 47 -53 47c-31 0 -60 -15 -61 -67h-117c9 102 65 167 179 167c108 0 172 -58 172 -138c0 -79 -45 -120 -134 -161z" />
    <glyph glyph-name="uni2462" unicode="&#x2462;" horiz-adv-x="956" 
d="M478 819c268 0 478 -205 478 -463s-210 -463 -478 -463s-478 205 -478 463s210 463 478 463zM479 13c197 0 348 149 348 343s-151 343 -348 343s-349 -149 -349 -343s152 -343 349 -343zM595 372c45 -19 70 -59 70 -108c0 -83 -66 -144 -182 -144
c-132 0 -193 67 -193 175h115c1 -56 25 -76 75 -76c40 0 63 19 63 50c0 39 -26 52 -67 52h-35v87h37c37 0 61 10 61 47c0 28 -22 44 -58 44c-37 0 -60 -14 -63 -56h-115c4 94 58 151 179 151c108 0 172 -50 172 -128c0 -40 -24 -74 -59 -94z" />
    <glyph glyph-name="uni2463" unicode="&#x2463;" horiz-adv-x="956" 
d="M478 819c268 0 478 -205 478 -463s-210 -463 -478 -463s-478 205 -478 463s210 463 478 463zM479 13c197 0 348 149 348 343s-151 343 -348 343s-349 -149 -349 -343s152 -343 349 -343zM596 587v-265h56v-97h-56v-93h-120v93h-206v115l204 247h122zM479 463l-117 -141
h117v141z" />
    <glyph glyph-name="uni2464" unicode="&#x2464;" horiz-adv-x="956" 
d="M478 819c268 0 478 -205 478 -463s-210 -463 -478 -463s-478 205 -478 463s210 463 478 463zM479 13c197 0 348 149 348 343s-151 343 -348 343s-349 -149 -349 -343s152 -343 349 -343zM500 427c110 0 160 -74 160 -153c0 -101 -79 -161 -183 -161
c-93 0 -173 49 -179 144h113c6 -31 32 -51 66 -51c42 0 70 28 70 68s-28 68 -70 68c-33 0 -53 -16 -62 -34h-111l44 269h290v-100h-197l-12 -67c19 11 43 17 71 17z" />
    <glyph glyph-name="uni2465" unicode="&#x2465;" horiz-adv-x="956" 
d="M478 819c268 0 478 -205 478 -463s-210 -463 -478 -463s-478 205 -478 463s210 463 478 463zM479 13c197 0 348 149 348 343s-151 343 -348 343s-349 -149 -349 -343s152 -343 349 -343zM499 434c105 0 160 -74 160 -153c0 -101 -77 -161 -181 -161c-44 0 -85 12 -114 34
c-54 38 -77 109 -77 198c0 162 71 242 193 242c94 0 160 -46 173 -132h-113c-9 31 -34 42 -61 42c-48 0 -73 -24 -80 -105c25 23 59 35 100 35zM478 214c42 0 68 28 68 65s-26 65 -68 65c-41 0 -67 -28 -67 -65s26 -65 67 -65z" />
    <glyph glyph-name="uni2466" unicode="&#x2466;" horiz-adv-x="956" 
d="M478 819c268 0 478 -205 478 -463s-210 -463 -478 -463s-478 205 -478 463s210 463 478 463zM479 13c197 0 348 149 348 343s-151 343 -348 343s-349 -149 -349 -343s152 -343 349 -343zM319 472v100h328v-97c-86 -89 -131 -180 -131 -358h-129c2 148 65 273 141 355
h-209z" />
    <glyph glyph-name="uni2467" unicode="&#x2467;" horiz-adv-x="956" 
d="M478 819c268 0 478 -205 478 -463s-210 -463 -478 -463s-478 205 -478 463s210 463 478 463zM479 13c197 0 348 149 348 343s-151 343 -348 343s-349 -149 -349 -343s152 -343 349 -343zM596 369c49 -21 71 -59 71 -108c0 -84 -71 -141 -190 -141
c-117 0 -188 57 -188 141c0 49 22 87 70 108c-34 22 -51 56 -51 96c0 79 62 129 169 129c108 0 170 -50 170 -129c0 -40 -17 -74 -51 -96zM477 507c-38 0 -61 -19 -61 -51c0 -31 22 -51 61 -51c41 0 62 20 62 51c0 32 -23 51 -62 51zM477 213c48 0 72 20 72 57
c0 38 -26 59 -72 59c-44 0 -70 -21 -70 -59c0 -37 24 -57 70 -57z" />
    <glyph glyph-name="uni2468" unicode="&#x2468;" horiz-adv-x="956" 
d="M478 819c268 0 478 -205 478 -463s-210 -463 -478 -463s-478 205 -478 463s210 463 478 463zM479 13c197 0 348 149 348 343s-151 343 -348 343s-349 -149 -349 -343s152 -343 349 -343zM596 558c54 -39 77 -107 77 -197c0 -162 -71 -241 -191 -241
c-95 0 -162 46 -174 131h112c10 -30 35 -41 63 -41c46 0 71 23 78 104c-24 -23 -58 -35 -99 -35c-106 0 -161 74 -161 153c0 101 77 162 181 162c44 0 85 -15 114 -36zM482 369c41 0 67 28 67 66c0 36 -26 64 -67 64s-67 -28 -67 -64c0 -38 26 -66 67 -66z" />
    <glyph glyph-name="zero.ss09" horiz-adv-x="956" 
d="M24 -88v888h908v-888h-908zM478 122c126 0 193 81 193 234c0 154 -66 235 -193 235s-193 -81 -193 -235s67 -234 193 -234zM479 216c-53 0 -76 43 -76 140c0 98 23 141 76 141c52 0 74 -43 74 -141s-22 -140 -74 -140z" />
    <glyph glyph-name="one.ss09" horiz-adv-x="956" 
d="M24 -88v888h908v-888h-908zM438 132h114v449h-90c-24 -70 -75 -81 -124 -81v-77h100v-291z" />
    <glyph glyph-name="two.ss09" horiz-adv-x="956" 
d="M24 -88v888h908v-888h-908zM302 151h353v93h-220c6 29 29 46 62 61l26 12c88 40 132 80 132 157c0 79 -64 135 -169 135c-108 0 -165 -59 -175 -160h109c3 43 25 67 65 67c37 0 57 -18 57 -51c0 -28 -22 -48 -67 -68l-35 -15c-102 -46 -132 -119 -136 -189z" />
    <glyph glyph-name="three.ss09" horiz-adv-x="956" 
d="M24 -88v888h908v-888h-908zM483 122c109 0 179 57 179 142c0 50 -28 90 -76 107c40 20 64 56 64 95c0 77 -63 125 -168 125c-111 0 -170 -48 -176 -145h108c5 40 25 56 67 56c39 0 61 -17 61 -47c0 -35 -20 -50 -64 -50h-34v-80h32c47 0 71 -19 71 -56
c0 -33 -26 -54 -67 -54c-54 0 -77 22 -78 76h-108c2 -110 67 -169 189 -169z" />
    <glyph glyph-name="four.ss09" horiz-adv-x="956" 
d="M24 -88v888h908v-888h-908zM479 135h113v93h56v90h-56v265h-117l-202 -244v-111h206v-93zM355 318l127 154v-154h-127z" />
    <glyph glyph-name="five.ss09" horiz-adv-x="956" 
d="M24 -88v888h908v-888h-908zM478 116c106 0 179 63 179 158c0 79 -49 149 -156 149c-30 0 -56 -7 -76 -20l14 77h197v93h-284l-43 -262h105c12 22 35 35 64 35c43 0 73 -30 73 -72s-29 -71 -73 -71c-35 0 -61 19 -68 51h-109c9 -84 78 -138 177 -138z" />
    <glyph glyph-name="six.ss09" horiz-adv-x="956" 
d="M24 -88v888h908v-888h-908zM478 122c107 0 178 64 178 159c0 79 -54 150 -157 150c-44 0 -80 -15 -104 -40v5c7 81 31 111 84 111c32 0 55 -15 64 -42h106c-13 80 -75 126 -168 126c-124 0 -190 -84 -190 -239c0 -96 26 -162 75 -197c28 -21 69 -33 112 -33zM478 210
c-42 0 -70 28 -70 69c0 40 28 69 70 69c43 0 72 -29 72 -69c0 -41 -29 -69 -72 -69z" />
    <glyph glyph-name="seven.ss09" horiz-adv-x="956" 
d="M24 -88v888h908v-888h-908zM387 120h122c1 176 46 268 131 356v93h-321v-94h214c-77 -80 -143 -206 -146 -355z" />
    <glyph glyph-name="eight.ss09" horiz-adv-x="956" 
d="M24 -88v888h908v-888h-908zM478 122c114 0 187 55 187 138c0 53 -25 89 -76 109c36 21 55 54 55 96c0 78 -62 126 -166 126c-103 0 -166 -48 -166 -126c0 -41 20 -76 56 -96c-51 -20 -76 -56 -76 -109c0 -83 73 -138 186 -138zM478 402c-41 0 -65 20 -65 54s25 54 65 54
c41 0 65 -20 65 -54s-24 -54 -65 -54zM478 209c-48 0 -75 21 -75 60c0 40 28 63 75 63c48 0 76 -23 76 -63c0 -39 -27 -60 -76 -60z" />
    <glyph glyph-name="nine.ss09" horiz-adv-x="956" 
d="M24 -88v888h908v-888h-908zM480 120c120 0 193 77 193 241c0 91 -23 161 -77 199c-29 21 -70 33 -114 33c-105 0 -181 -62 -181 -161c0 -79 56 -153 161 -153c39 0 72 12 96 33l4 4c0 -1 0 -3 -1 -9c-7 -73 -33 -98 -80 -98c-27 0 -52 10 -61 42h-112
c13 -86 79 -131 172 -131zM482 368c-41 0 -68 28 -68 67c0 37 27 65 68 65s68 -28 68 -65c0 -39 -27 -67 -68 -67z" />
    <glyph glyph-name="zero.ss10" horiz-adv-x="956" 
d="M24 -88v888h908v-888h-908zM154 29h648v654h-648v-654zM478 120c-131 0 -196 84 -196 236c0 153 65 238 196 238s196 -85 196 -238c0 -152 -65 -236 -196 -236zM478 220c46 0 71 32 71 136c0 105 -25 138 -71 138c-45 0 -71 -31 -71 -138c0 -105 26 -136 71 -136z" />
    <glyph glyph-name="one.ss10" horiz-adv-x="956" 
d="M24 800h908v-888h-908v888zM802 29v654h-648v-654h648zM442 129v294c-32 -3 -66 -3 -100 -3v83c49 1 101 9 124 81h95v-455h-119z" />
    <glyph glyph-name="two.ss10" horiz-adv-x="956" 
d="M24 800h908v-888h-908v888zM802 29v654h-648v-654h648zM658 230v-101h-360l2 46c4 70 37 143 138 191l35 16c45 21 65 39 65 65c0 33 -22 47 -53 47s-60 -15 -62 -67h-116c9 102 65 167 178 167c108 0 173 -58 173 -138c0 -79 -45 -120 -134 -161l-26 -12
c-32 -15 -52 -29 -59 -53h219z" />
    <glyph glyph-name="three.ss10" horiz-adv-x="956" 
d="M24 800h908v-888h-908v888zM802 29v654h-648v-654h648zM480 219c40 0 63 19 63 50c0 39 -26 52 -67 52h-35v87h37c37 0 61 10 61 47c0 28 -22 44 -58 44c-37 0 -60 -14 -63 -56h-115c4 94 58 151 179 151c108 0 172 -50 172 -128c0 -40 -24 -74 -59 -94
c45 -19 70 -59 70 -108c0 -83 -66 -144 -182 -144c-132 0 -193 67 -193 175h115c1 -56 25 -76 75 -76z" />
    <glyph glyph-name="four.ss10" horiz-adv-x="956" 
d="M24 800h908v-888h-908v888zM802 29v654h-648v-654h648zM490 129v93h-206v115l204 247h122v-265h56v-97h-56v-93h-120zM493 460l-117 -141h117v141z" />
    <glyph glyph-name="five.ss10" horiz-adv-x="956" 
d="M24 800h908v-888h-908v888zM802 29v654h-648v-654h648zM479 214c42 0 69 28 69 67c0 40 -27 69 -69 69c-33 0 -54 -17 -63 -35h-110l44 269h290v-100h-197l-13 -67c20 11 43 17 71 17c110 0 160 -74 160 -153c0 -101 -79 -161 -182 -161c-94 0 -173 50 -180 145h113
c6 -32 32 -51 67 -51z" />
    <glyph glyph-name="six.ss10" horiz-adv-x="956" 
d="M24 800h908v-888h-908v888zM802 29v654h-648v-654h648zM369 154c-54 38 -77 109 -77 198c0 162 71 242 193 242c94 0 160 -46 173 -132h-113c-9 31 -34 42 -61 42c-48 0 -73 -24 -80 -105c24 23 59 35 100 35c105 0 160 -74 160 -153c0 -101 -77 -161 -181 -161
c-44 0 -85 12 -114 34zM483 344c-41 0 -67 -28 -67 -65s26 -65 67 -65c42 0 68 28 68 65s-26 65 -68 65z" />
    <glyph glyph-name="seven.ss10" horiz-adv-x="956" 
d="M24 800h908v-888h-908v888zM802 29v654h-648v-654h648zM382 129c2 148 65 273 141 355h-209v100h328v-97c-86 -89 -131 -180 -131 -358h-129z" />
    <glyph glyph-name="eight.ss10" horiz-adv-x="956" 
d="M24 800h908v-888h-908v888zM802 29v654h-648v-654h648zM289 261c0 49 22 87 70 108c-34 22 -51 56 -51 96c0 79 62 129 169 129c108 0 170 -50 170 -129c0 -40 -17 -74 -51 -96c49 -21 71 -59 71 -108c0 -84 -71 -141 -190 -141c-117 0 -188 57 -188 141zM477 507
c-38 0 -61 -19 -61 -51c0 -31 22 -51 61 -51c41 0 62 20 62 51c0 32 -23 51 -62 51zM477 213c48 0 72 20 72 57c0 38 -26 59 -72 59c-44 0 -70 -21 -70 -59c0 -37 24 -57 70 -57z" />
    <glyph glyph-name="nine.ss10" horiz-adv-x="956" 
d="M24 800h908v-888h-908v888zM802 29v654h-648v-654h648zM453 278c-106 0 -161 74 -161 153c0 101 77 162 181 162c44 0 85 -15 114 -36c54 -39 78 -107 78 -197c0 -162 -72 -241 -192 -241c-95 0 -162 46 -174 131h112c10 -30 35 -41 63 -41c46 0 71 23 78 104
c-24 -23 -58 -35 -99 -35zM473 498c-41 0 -67 -28 -67 -64c0 -38 26 -66 67 -66s67 28 67 66c0 36 -26 64 -67 64z" />
    <glyph glyph-name="zero.zero" horiz-adv-x="677" 
d="M339 728c201 0 303 -136 303 -372s-102 -372 -303 -372s-304 136 -304 372s103 372 304 372zM339 588c-82 0 -128 -63 -128 -232c0 -39 2 -73 7 -101l206 293c-21 28 -50 40 -85 40zM339 124c82 0 127 63 127 232c0 42 -3 78 -8 107l-207 -296c21 -30 51 -43 88 -43z" />
    <glyph glyph-name="zero.subs" unicode="&#x2080;" horiz-adv-x="396" 
d="M198 -205c-119 0 -178 77 -178 215c0 139 59 216 178 216s178 -77 178 -216c0 -138 -59 -215 -178 -215zM198 -114c42 0 65 29 65 124c0 96 -23 125 -65 125c-41 0 -65 -28 -65 -125c0 -96 24 -124 65 -124z" />
    <glyph glyph-name="one.subs" unicode="&#x2081;" horiz-adv-x="240" 
d="M215 217v-413h-109v264h-91v75c45 0 92 8 114 74h86z" />
    <glyph glyph-name="two.subs" unicode="&#x2082;" horiz-adv-x="357" 
d="M196 -56c-30 -14 -48 -27 -55 -49h200v-91h-327l2 41c4 64 33 132 125 174l32 15c41 19 59 35 59 59c0 30 -20 42 -48 42s-55 -13 -56 -60h-106c8 92 59 151 162 151c98 0 157 -53 157 -125c0 -73 -41 -109 -122 -146z" />
    <glyph glyph-name="three.subs" unicode="&#x2083;" horiz-adv-x="367" 
d="M291 24c40 -17 64 -53 64 -97c0 -76 -60 -132 -166 -132c-120 0 -175 62 -175 159h105c0 -51 22 -69 67 -69c37 0 58 18 58 46c0 35 -24 48 -61 48h-32v78h33c34 0 55 9 55 43c0 26 -19 40 -51 40c-35 0 -55 -13 -58 -51h-105c4 86 53 137 164 137c97 0 155 -45 155 -116
c0 -36 -22 -67 -53 -86z" />
    <glyph glyph-name="four.subs" unicode="&#x2084;" horiz-adv-x="385" 
d="M370 -23v-88h-51v-85h-109v85h-188v103l186 225h111v-240h51zM212 104l-105 -127h105v127z" />
    <glyph glyph-name="five.subs" unicode="&#x2085;" horiz-adv-x="358" 
d="M200 81c100 0 145 -67 145 -139c0 -92 -72 -147 -166 -147c-84 0 -157 45 -163 132h103c5 -28 29 -46 60 -46c39 0 63 25 63 61s-24 62 -63 62c-30 0 -48 -14 -56 -31h-101l40 244h264v-91h-180l-11 -61c17 11 39 16 65 16z" />
    <glyph glyph-name="six.subs" unicode="&#x2086;" horiz-adv-x="369" 
d="M210 81c96 0 146 -67 146 -139c0 -92 -70 -147 -165 -147c-39 0 -77 11 -104 31c-48 35 -69 99 -69 180c0 147 65 220 175 220c85 0 146 -42 157 -119h-102c-9 27 -31 37 -56 37c-43 0 -67 -21 -73 -95c22 20 54 32 91 32zM191 -119c38 0 62 25 62 59c0 33 -24 60 -62 60
c-37 0 -61 -27 -61 -60c0 -34 24 -59 61 -59z" />
    <glyph glyph-name="seven.subs" unicode="&#x2087;" horiz-adv-x="329" 
d="M15 217h299v-88c-79 -80 -119 -164 -120 -325h-117c2 134 59 247 128 322h-190v91z" />
    <glyph glyph-name="eight.subs" unicode="&#x2088;" horiz-adv-x="377" 
d="M296 22c45 -19 65 -54 65 -99c0 -76 -65 -128 -173 -128c-107 0 -172 52 -172 128c0 45 20 80 65 99c-31 20 -46 51 -46 87c0 72 56 117 153 117c98 0 154 -45 154 -117c0 -37 -15 -67 -46 -87zM188 147c-35 0 -56 -17 -56 -46c0 -28 20 -46 56 -46c37 0 56 18 56 46
c0 29 -20 46 -56 46zM188 -120c43 0 66 19 66 52c0 34 -25 53 -66 53c-40 0 -64 -19 -64 -53c0 -33 22 -52 64 -52z" />
    <glyph glyph-name="nine.subs" unicode="&#x2089;" horiz-adv-x="369" 
d="M281 194c49 -36 70 -98 70 -179c0 -147 -65 -220 -174 -220c-86 0 -147 42 -158 119h102c9 -27 32 -37 57 -37c42 0 65 21 71 95c-22 -21 -54 -32 -91 -32c-95 0 -145 67 -145 139c0 92 70 147 164 147c40 0 77 -13 104 -32zM177 21c38 0 61 27 61 60c0 34 -23 59 -61 59
s-61 -25 -61 -59c0 -33 23 -60 61 -60z" />
    <glyph glyph-name="zero.sups" unicode="&#x2070;" horiz-adv-x="396" 
d="M198 519c-119 0 -178 77 -178 215c0 139 59 216 178 216s178 -77 178 -216c0 -138 -59 -215 -178 -215zM198 610c42 0 65 29 65 124c0 96 -23 125 -65 125c-41 0 -65 -28 -65 -125c0 -96 24 -124 65 -124z" />
    <glyph glyph-name="one.sups" unicode="&#xb9;" horiz-adv-x="240" 
d="M215 941v-413h-109v264h-91v75c45 0 92 8 114 74h86z" />
    <glyph glyph-name="two.sups" unicode="&#xb2;" horiz-adv-x="357" 
d="M196 668c-30 -14 -48 -27 -55 -49h200v-91h-327l2 41c4 64 33 132 125 174l32 15c41 19 59 35 59 59c0 30 -20 42 -48 42s-55 -13 -56 -60h-106c8 92 59 151 162 151c98 0 157 -53 157 -125c0 -73 -41 -109 -122 -146z" />
    <glyph glyph-name="three.sups" unicode="&#xb3;" horiz-adv-x="367" 
d="M291 748c40 -17 64 -53 64 -97c0 -76 -60 -132 -166 -132c-120 0 -175 62 -175 159h105c0 -51 22 -69 67 -69c37 0 58 18 58 46c0 35 -24 48 -61 48h-32v78h33c34 0 55 9 55 43c0 26 -19 40 -51 40c-35 0 -55 -13 -58 -51h-105c4 86 53 137 164 137
c97 0 155 -45 155 -116c0 -36 -22 -67 -53 -86z" />
    <glyph glyph-name="four.sups" unicode="&#x2074;" horiz-adv-x="385" 
d="M370 701v-88h-51v-85h-109v85h-188v103l186 225h111v-240h51zM212 828l-105 -127h105v127z" />
    <glyph glyph-name="five.sups" unicode="&#x2075;" horiz-adv-x="358" 
d="M200 805c100 0 145 -67 145 -139c0 -92 -72 -147 -166 -147c-84 0 -157 45 -163 132h103c5 -28 29 -46 60 -46c39 0 63 25 63 61s-24 62 -63 62c-30 0 -48 -14 -56 -31h-101l40 244h264v-91h-180l-11 -61c17 11 39 16 65 16z" />
    <glyph glyph-name="six.sups" unicode="&#x2076;" horiz-adv-x="369" 
d="M210 805c96 0 146 -67 146 -139c0 -92 -70 -147 -165 -147c-39 0 -77 11 -104 31c-48 35 -69 99 -69 180c0 147 65 220 175 220c85 0 146 -42 157 -119h-102c-9 27 -31 37 -56 37c-43 0 -67 -21 -73 -95c22 20 54 32 91 32zM191 605c38 0 62 25 62 59c0 33 -24 60 -62 60
c-37 0 -61 -27 -61 -60c0 -34 24 -59 61 -59z" />
    <glyph glyph-name="seven.sups" unicode="&#x2077;" horiz-adv-x="329" 
d="M15 941h299v-88c-79 -80 -119 -164 -120 -325h-117c2 134 59 247 128 322h-190v91z" />
    <glyph glyph-name="eight.sups" unicode="&#x2078;" horiz-adv-x="377" 
d="M296 746c45 -19 65 -54 65 -99c0 -76 -65 -128 -173 -128c-107 0 -172 52 -172 128c0 45 20 80 65 99c-31 20 -46 51 -46 87c0 72 56 117 153 117c98 0 154 -45 154 -117c0 -37 -15 -67 -46 -87zM188 871c-35 0 -56 -17 -56 -46c0 -28 20 -46 56 -46c37 0 56 18 56 46
c0 29 -20 46 -56 46zM188 604c43 0 66 19 66 52c0 34 -25 53 -66 53c-40 0 -64 -19 -64 -53c0 -33 22 -52 64 -52z" />
    <glyph glyph-name="nine.sups" unicode="&#x2079;" horiz-adv-x="369" 
d="M281 918c49 -36 70 -98 70 -179c0 -147 -65 -220 -174 -220c-86 0 -147 42 -158 119h102c9 -27 32 -37 57 -37c42 0 65 21 71 95c-22 -21 -54 -32 -91 -32c-95 0 -145 67 -145 139c0 92 70 147 164 147c40 0 77 -13 104 -32zM177 745c38 0 61 27 61 60
c0 34 -23 59 -61 59s-61 -25 -61 -59c0 -33 23 -60 61 -60z" />
    <glyph glyph-name="zero.dnom" horiz-adv-x="396" 
d="M198 -9c-119 0 -178 77 -178 215c0 139 59 216 178 216s178 -77 178 -216c0 -138 -59 -215 -178 -215zM198 82c42 0 65 29 65 124c0 96 -23 125 -65 125c-41 0 -65 -28 -65 -125c0 -96 24 -124 65 -124z" />
    <glyph glyph-name="one.dnom" horiz-adv-x="240" 
d="M215 413v-413h-108v267c-29 -3 -61 -3 -92 -3v75c45 1 92 8 114 74h86z" />
    <glyph glyph-name="two.dnom" horiz-adv-x="357" 
d="M196 140c-30 -14 -48 -27 -55 -49h200v-91h-327l2 41c4 64 33 132 125 174l32 15c41 19 59 35 59 59c0 30 -20 42 -48 42s-55 -13 -56 -60h-106c8 92 59 151 162 151c98 0 157 -53 157 -125c0 -73 -41 -109 -122 -146z" />
    <glyph glyph-name="three.dnom" horiz-adv-x="367" 
d="M291 220c40 -17 64 -53 64 -97c0 -76 -60 -132 -166 -132c-120 0 -175 62 -175 159h105c0 -51 22 -69 67 -69c37 0 58 18 58 46c0 35 -24 48 -61 48h-32v78h33c34 0 55 9 55 43c0 26 -19 40 -51 40c-35 0 -55 -13 -58 -51h-105c4 86 53 137 164 137
c97 0 155 -45 155 -116c0 -36 -22 -67 -53 -86z" />
    <glyph glyph-name="four.dnom" horiz-adv-x="385" 
d="M370 173v-88h-51v-85h-109v85h-188v103l186 225h111v-240h51zM212 300l-105 -127h105v127z" />
    <glyph glyph-name="five.dnom" horiz-adv-x="358" 
d="M200 277c100 0 145 -67 145 -139c0 -92 -72 -147 -166 -147c-91 0 -157 50 -163 132h103c5 -24 23 -46 60 -46c39 0 63 25 63 61s-24 62 -63 62c-32 0 -49 -17 -56 -31h-102l41 244h264v-91h-180l-11 -60c18 10 39 15 65 15z" />
    <glyph glyph-name="six.dnom" horiz-adv-x="369" 
d="M210 277c96 0 146 -67 146 -139c0 -92 -70 -147 -165 -147c-39 0 -77 11 -104 31c-48 35 -69 99 -69 180c0 147 65 220 175 220c85 0 146 -42 157 -119h-102c-9 27 -31 37 -56 37c-43 0 -67 -21 -73 -95c22 21 54 32 91 32zM191 77c38 0 62 25 62 59c0 33 -24 60 -62 60
c-37 0 -61 -27 -61 -60c0 -34 24 -59 61 -59z" />
    <glyph glyph-name="seven.dnom" horiz-adv-x="329" 
d="M15 413h299v-88c-79 -80 -119 -164 -120 -325h-117c2 134 59 247 128 322h-190v91z" />
    <glyph glyph-name="eight.dnom" horiz-adv-x="377" 
d="M296 218c45 -19 65 -54 65 -99c0 -76 -65 -128 -173 -128c-107 0 -172 52 -172 128c0 45 20 80 65 99c-31 20 -46 51 -46 87c0 72 56 117 153 117c98 0 154 -45 154 -117c0 -37 -15 -67 -46 -87zM188 343c-35 0 -56 -17 -56 -46c0 -28 20 -46 56 -46c37 0 56 18 56 46
c0 29 -20 46 -56 46zM188 76c43 0 66 19 66 52c0 34 -25 53 -66 53c-40 0 -64 -19 -64 -53c0 -33 22 -52 64 -52z" />
    <glyph glyph-name="nine.dnom" horiz-adv-x="369" 
d="M281 390c49 -36 70 -98 70 -179c0 -147 -65 -220 -174 -220c-86 0 -147 42 -158 119h102c9 -27 32 -37 57 -37c42 0 65 21 71 95c-22 -21 -54 -32 -91 -32c-95 0 -145 67 -145 139c0 92 70 147 164 147c40 0 77 -13 104 -32zM177 217c38 0 61 27 61 60
c0 34 -23 59 -61 59s-61 -25 -61 -59c0 -33 23 -60 61 -60z" />
    <glyph glyph-name="zero.numr" horiz-adv-x="396" 
d="M198 290c-119 0 -178 77 -178 215c0 139 59 216 178 216s178 -77 178 -216c0 -138 -59 -215 -178 -215zM198 381c42 0 65 29 65 124c0 96 -23 125 -65 125c-41 0 -65 -28 -65 -125c0 -96 24 -124 65 -124z" />
    <glyph glyph-name="one.numr" horiz-adv-x="240" 
d="M215 712v-413h-109v264h-91v75c45 0 92 8 114 74h86z" />
    <glyph glyph-name="two.numr" horiz-adv-x="357" 
d="M196 439c-30 -14 -48 -27 -55 -49h200v-91h-327l2 41c4 64 33 132 125 174l32 15c41 19 59 35 59 59c0 30 -20 42 -48 42s-55 -13 -56 -60h-106c8 92 59 151 162 151c98 0 157 -53 157 -125c0 -73 -41 -109 -122 -146z" />
    <glyph glyph-name="three.numr" horiz-adv-x="367" 
d="M291 519c40 -17 64 -53 64 -97c0 -76 -60 -132 -166 -132c-120 0 -175 62 -175 159h105c0 -51 22 -69 67 -69c37 0 58 18 58 46c0 35 -24 48 -61 48h-32v78h33c34 0 55 9 55 43c0 26 -19 40 -51 40c-35 0 -55 -13 -58 -51h-105c4 86 53 137 164 137
c97 0 155 -45 155 -116c0 -36 -22 -67 -53 -86z" />
    <glyph glyph-name="four.numr" horiz-adv-x="385" 
d="M370 472v-88h-51v-85h-109v85h-188v103l186 225h111v-240h51zM212 599l-105 -127h105v127z" />
    <glyph glyph-name="five.numr" horiz-adv-x="358" 
d="M200 576c100 0 145 -67 145 -139c0 -92 -72 -147 -166 -147c-84 0 -157 45 -163 132h103c5 -28 29 -46 60 -46c39 0 63 25 63 61s-24 62 -63 62c-30 0 -48 -14 -56 -31h-101l40 244h264v-91h-180l-11 -61c17 11 39 16 65 16z" />
    <glyph glyph-name="six.numr" horiz-adv-x="369" 
d="M210 576c96 0 146 -67 146 -139c0 -92 -70 -147 -165 -147c-39 0 -77 11 -104 31c-48 35 -69 99 -69 180c0 147 65 220 175 220c85 0 146 -42 157 -119h-102c-9 27 -31 37 -56 37c-43 0 -67 -21 -73 -95c22 20 54 32 91 32zM191 376c38 0 62 25 62 59c0 33 -24 60 -62 60
c-37 0 -61 -27 -61 -60c0 -34 24 -59 61 -59z" />
    <glyph glyph-name="seven.numr" horiz-adv-x="329" 
d="M15 712h299v-88c-79 -80 -119 -164 -120 -325h-117c2 134 59 247 128 322h-190v91z" />
    <glyph glyph-name="eight.numr" horiz-adv-x="377" 
d="M296 517c45 -19 65 -54 65 -99c0 -76 -65 -128 -173 -128c-107 0 -172 52 -172 128c0 45 20 80 65 99c-31 20 -46 51 -46 87c0 72 56 117 153 117c98 0 154 -45 154 -117c0 -37 -15 -67 -46 -87zM188 642c-35 0 -56 -17 -56 -46c0 -28 20 -46 56 -46c37 0 56 18 56 46
c0 29 -20 46 -56 46zM188 375c43 0 66 19 66 52c0 34 -25 53 -66 53c-40 0 -64 -19 -64 -53c0 -33 22 -52 64 -52z" />
    <glyph glyph-name="nine.numr" horiz-adv-x="369" 
d="M281 689c49 -36 70 -98 70 -179c0 -147 -65 -220 -174 -220c-86 0 -147 42 -158 119h102c9 -27 32 -37 57 -37c42 0 65 21 71 95c-22 -21 -54 -32 -91 -32c-95 0 -145 67 -145 139c0 92 70 147 164 147c40 0 77 -13 104 -32zM177 516c38 0 61 27 61 60
c0 34 -23 59 -61 59s-61 -25 -61 -59c0 -33 23 -60 61 -60z" />
    <glyph glyph-name="fraction" unicode="&#x2044;" horiz-adv-x="320" 
d="M-80 0l380 712h99l-380 -712h-99z" />
    <glyph glyph-name="onehalf" unicode="&#xbd;" horiz-adv-x="770" 
d="M215 299h-109v264h-91v75c45 0 92 8 114 74h86v-413zM491 712h99l-380 -712h-99zM609 140c-30 -14 -48 -27 -54 -49h199v-91h-327l2 41c4 64 33 132 125 174l32 15c42 19 59 35 59 59c0 30 -19 42 -48 42c-28 0 -55 -13 -56 -60h-106c8 92 59 151 162 151
c99 0 157 -53 157 -125c0 -73 -41 -109 -122 -146z" />
    <glyph glyph-name="uni2153" unicode="&#x2153;" horiz-adv-x="770" 
d="M106 299v264h-91v75c45 0 92 8 114 74h86v-413h-109zM481 712h99l-380 -712h-99zM694 220c39 -17 63 -53 63 -97c0 -76 -60 -132 -166 -132c-120 0 -175 62 -175 159h105c0 -51 22 -69 68 -69c36 0 57 18 57 46c0 35 -24 48 -61 48h-32v78h34c34 0 55 9 55 43
c0 26 -20 40 -52 40c-35 0 -55 -13 -58 -51h-105c4 86 53 137 164 137c98 0 156 -45 156 -116c0 -36 -22 -67 -53 -86z" />
    <glyph glyph-name="uni2154" unicode="&#x2154;" horiz-adv-x="917" 
d="M341 390v-91h-327l2 41c4 64 33 132 125 174l32 15c41 19 59 35 59 59c0 30 -20 42 -48 42s-55 -13 -56 -60h-106c8 92 59 151 162 151c98 0 157 -53 157 -125c0 -73 -41 -109 -122 -146l-23 -11c-30 -14 -48 -27 -55 -49h200zM621 712h100l-380 -712h-100zM841 220
c40 -17 64 -53 64 -97c0 -76 -60 -132 -166 -132c-120 0 -175 62 -176 159h105c1 -51 23 -69 68 -69c36 0 58 18 58 46c0 35 -24 48 -61 48h-32v78h33c34 0 55 9 55 43c0 26 -19 40 -51 40c-35 0 -55 -13 -58 -51h-105c4 86 53 137 164 137c97 0 155 -45 155 -116
c0 -36 -22 -67 -53 -86z" />
    <glyph glyph-name="onequarter" unicode="&#xbc;" horiz-adv-x="722" 
d="M106 299v264h-91v75c45 0 92 8 114 74h86v-413h-109zM481 712h99l-380 -712h-99zM707 173v-88h-51v-85h-109v85h-188v103l186 225h111v-240h51zM549 300l-105 -127h105v127z" />
    <glyph glyph-name="threequarters" unicode="&#xbe;" horiz-adv-x="839" 
d="M355 422c0 -76 -60 -132 -166 -132c-120 0 -175 62 -175 159h105c0 -51 22 -69 67 -69c37 0 58 18 58 46c0 35 -24 48 -61 48h-32v78h33c34 0 55 9 55 43c0 26 -19 40 -51 40c-35 0 -55 -13 -58 -51h-105c4 86 53 137 164 137c97 0 155 -45 155 -116
c0 -36 -22 -67 -53 -86c40 -17 64 -53 64 -97zM593 712h99l-380 -712h-99zM824 173v-88h-51v-85h-109v85h-188v103l186 225h111v-240h51zM666 300l-105 -127h105v127z" />
    <glyph glyph-name="uni2155" unicode="&#x2155;" horiz-adv-x="799" 
d="M215 299h-109v264h-91v75c45 0 92 8 114 74h86v-413zM500 712h100l-380 -712h-100zM641 277c100 0 146 -67 146 -139c0 -92 -72 -147 -166 -147c-91 0 -158 50 -164 132h104c4 -24 22 -46 60 -46s62 25 62 61s-24 62 -62 62c-33 0 -49 -17 -57 -31h-101l41 244h263v-91
h-179l-12 -60c18 10 40 15 65 15z" />
    <glyph glyph-name="uni2156" unicode="&#x2156;" horiz-adv-x="926" 
d="M341 390v-91h-327l2 41c4 64 33 132 125 174l32 15c41 19 59 35 59 59c0 30 -20 42 -48 42s-55 -13 -56 -60h-106c8 92 59 151 162 151c98 0 157 -53 157 -125c0 -73 -41 -109 -122 -146l-23 -11c-30 -14 -48 -27 -55 -49h200zM623 712h99l-380 -712h-99zM766 277
c100 0 145 -67 145 -139c0 -92 -72 -147 -166 -147c-91 0 -157 50 -163 132h103c5 -24 23 -46 60 -46c39 0 63 25 63 61s-24 62 -63 62c-32 0 -48 -17 -56 -31h-101l40 244h264v-91h-180l-11 -60c18 10 39 15 65 15z" />
    <glyph glyph-name="uni2157" unicode="&#x2157;" horiz-adv-x="894" 
d="M355 422c0 -76 -60 -132 -166 -132c-120 0 -175 62 -175 159h105c0 -51 22 -69 67 -69c37 0 58 18 58 46c0 35 -24 48 -61 48h-32v78h33c34 0 55 9 55 43c0 26 -19 40 -51 40c-35 0 -55 -13 -58 -51h-105c4 86 53 137 164 137c97 0 155 -45 155 -116
c0 -36 -22 -67 -53 -86c40 -17 64 -53 64 -97zM597 712h99l-380 -712h-99zM737 277c100 0 145 -67 145 -139c0 -92 -72 -147 -166 -147c-91 0 -157 50 -163 132h103c5 -24 23 -46 60 -46c39 0 63 25 63 61s-24 62 -63 62c-32 0 -49 -17 -56 -31h-102l41 244h264v-91h-180
l-11 -60c18 10 39 15 65 15z" />
    <glyph glyph-name="uni2158" unicode="&#x2158;" horiz-adv-x="917" 
d="M319 299h-109v85h-188v103l186 225h111v-240h51v-88h-51v-85zM617 712h99l-380 -712h-99zM212 599l-105 -127h105v127zM757 277c100 0 145 -67 145 -139c0 -92 -72 -147 -166 -147c-91 0 -157 50 -163 132h103c5 -24 23 -46 60 -46c39 0 63 25 63 61s-24 62 -63 62
c-32 0 -49 -17 -56 -31h-102l41 244h264v-91h-180l-11 -60c18 10 39 15 65 15z" />
    <glyph glyph-name="uni2159" unicode="&#x2159;" horiz-adv-x="774" 
d="M215 299h-109v264h-91v75c45 0 92 8 114 74h86v-413zM488 712h99l-380 -712h-99zM615 277c96 0 146 -67 146 -139c0 -92 -70 -147 -165 -147c-39 0 -77 11 -104 31c-48 35 -69 99 -69 180c0 147 65 220 175 220c85 0 146 -42 157 -119h-102c-9 27 -31 37 -56 37
c-43 0 -67 -21 -73 -95c22 21 54 32 91 32zM596 77c38 0 62 25 62 59c0 33 -24 60 -62 60c-37 0 -61 -27 -61 -60c0 -34 24 -59 61 -59z" />
    <glyph glyph-name="uni215A" unicode="&#x215a;" horiz-adv-x="860" 
d="M345 437c0 -92 -72 -147 -166 -147c-84 0 -157 45 -163 132h103c5 -28 29 -46 60 -46c39 0 63 25 63 61s-24 62 -63 62c-30 0 -48 -14 -56 -31h-101l40 244h264v-91h-180l-11 -61c17 11 39 16 65 16c100 0 145 -67 145 -139zM575 712h99l-380 -712h-99zM702 277
c96 0 146 -67 146 -139c0 -92 -70 -147 -165 -147c-39 0 -77 11 -104 31c-48 35 -69 99 -69 180c0 147 65 220 175 220c85 0 146 -42 157 -119h-102c-9 27 -31 37 -56 37c-43 0 -67 -21 -73 -95c22 21 54 32 91 32zM683 77c38 0 62 25 62 59c0 33 -24 60 -62 60
c-37 0 -61 -27 -61 -60c0 -34 24 -59 61 -59z" />
    <glyph glyph-name="oneeighth" unicode="&#x215b;" horiz-adv-x="783" 
d="M106 299v264h-91v75c45 0 92 8 114 74h86v-413h-109zM481 712h99l-380 -712h-99zM702 218c45 -19 65 -54 65 -99c0 -76 -65 -128 -173 -128c-107 0 -172 52 -172 128c0 45 20 79 65 99c-31 20 -47 51 -47 87c0 72 56 117 154 117s154 -45 154 -117c0 -37 -16 -67 -46 -87
zM594 343c-35 0 -56 -17 -56 -46c0 -28 20 -46 56 -46c37 0 56 18 56 46c0 29 -20 46 -56 46zM594 76c43 0 65 19 65 52c0 34 -24 53 -65 53c-40 0 -65 -19 -65 -53c0 -33 23 -52 65 -52z" />
    <glyph glyph-name="threeeighths" unicode="&#x215c;" horiz-adv-x="892" 
d="M355 422c0 -76 -60 -132 -166 -132c-120 0 -175 62 -175 159h105c0 -51 22 -69 67 -69c37 0 58 18 58 46c0 35 -24 48 -61 48h-32v78h33c34 0 55 9 55 43c0 26 -19 40 -51 40c-35 0 -55 -13 -58 -51h-105c4 86 53 137 164 137c97 0 155 -45 155 -116
c0 -36 -22 -67 -53 -86c40 -17 64 -53 64 -97zM590 712h99l-380 -712h-99zM811 218c45 -19 65 -54 65 -99c0 -76 -65 -128 -173 -128c-107 0 -172 52 -172 128c0 45 20 79 65 99c-31 20 -47 51 -47 87c0 72 56 117 154 117s154 -45 154 -117c0 -37 -16 -67 -46 -87zM703 343
c-35 0 -56 -17 -56 -46c0 -28 20 -46 56 -46c37 0 56 18 56 46c0 29 -20 46 -56 46zM703 76c43 0 65 19 65 52c0 34 -24 53 -65 53c-40 0 -65 -19 -65 -53c0 -33 23 -52 65 -52z" />
    <glyph glyph-name="fiveeighths" unicode="&#x215d;" horiz-adv-x="874" 
d="M345 437c0 -92 -72 -147 -166 -147c-84 0 -157 45 -163 132h103c5 -28 29 -46 60 -46c39 0 63 25 63 61s-24 62 -63 62c-30 0 -48 -14 -56 -31h-101l40 244h264v-91h-180l-11 -61c17 11 39 16 65 16c100 0 145 -67 145 -139zM572 712h99l-380 -712h-99zM793 218
c45 -19 65 -54 65 -99c0 -76 -65 -128 -173 -128c-107 0 -172 52 -172 128c0 45 20 80 65 99c-31 20 -46 51 -46 87c0 72 56 117 153 117c98 0 154 -45 154 -117c0 -37 -16 -67 -46 -87zM685 343c-35 0 -56 -17 -56 -46c0 -28 20 -46 56 -46c37 0 56 18 56 46
c0 29 -20 46 -56 46zM685 76c43 0 66 19 66 52c0 34 -25 53 -66 53c-40 0 -64 -19 -64 -53c0 -33 22 -52 64 -52z" />
    <glyph glyph-name="seveneighths" unicode="&#x215e;" horiz-adv-x="790" 
d="M194 299h-117c2 134 59 247 128 322h-190v91h299v-88c-79 -80 -119 -164 -120 -325zM484 712h99l-380 -712h-99zM709 218c45 -19 65 -54 65 -99c0 -76 -65 -128 -173 -128c-107 0 -172 52 -172 128c0 45 20 79 65 99c-31 20 -47 51 -47 87c0 72 56 117 154 117
s154 -45 154 -117c0 -37 -16 -67 -46 -87zM601 343c-35 0 -56 -17 -56 -46c0 -28 20 -46 56 -46c37 0 56 18 56 46c0 29 -20 46 -56 46zM601 76c43 0 65 19 65 52c0 34 -24 53 -65 53c-40 0 -65 -19 -65 -53c0 -33 23 -52 65 -52z" />
    <glyph glyph-name="zero.tf" horiz-adv-x="677" 
d="M339 -16c-201 0 -304 136 -304 372s103 372 304 372s303 -136 303 -372s-102 -372 -303 -372zM339 124c82 0 127 63 127 232s-46 232 -127 232c-82 0 -128 -63 -128 -232s46 -232 128 -232z" />
    <glyph glyph-name="one.tf" horiz-adv-x="677" 
d="M452 136h155v-136h-505v136h181v309h-166v115l16 1c93 6 160 38 186 151h133v-576z" />
    <glyph glyph-name="two.tf" horiz-adv-x="677" 
d="M251 140h363v-140h-553l3 63c6 103 30 224 212 294l56 25c78 32 108 64 108 117c0 57 -37 89 -102 89c-71 0 -108 -35 -108 -114h-161c-1 150 83 254 274 254c169 0 266 -92 266 -213c0 -128 -74 -191 -207 -251l-63 -29c-56 -26 -83 -49 -88 -95z" />
    <glyph glyph-name="three.tf" horiz-adv-x="677" 
d="M509 380c76 -26 127 -88 127 -173c0 -130 -106 -223 -288 -223c-206 0 -304 103 -304 265h162c1 -91 48 -125 136 -125c76 0 121 35 121 91c0 70 -52 96 -127 96h-54v119h56c70 0 116 23 116 85c0 49 -40 81 -111 81s-114 -26 -118 -98h-161c4 148 95 230 281 230
c166 0 269 -76 269 -197c0 -68 -43 -123 -105 -151z" />
    <glyph glyph-name="four.tf" horiz-adv-x="677" 
d="M636 294v-139h-90v-155h-170v155h-331v159l314 398h187v-418h90zM382 544l-196 -250h196v250z" />
    <glyph glyph-name="five.tf" horiz-adv-x="677" 
d="M374 470c170 0 246 -115 246 -234c0 -157 -120 -252 -279 -252c-147 0 -264 82 -277 223h160c10 -56 54 -92 117 -92c75 0 120 51 120 121s-45 121 -120 121c-56 0 -93 -28 -110 -63h-156l70 418h442v-140h-312l-27 -145c33 27 76 43 126 43z" />
    <glyph glyph-name="six.tf" horiz-adv-x="677" 
d="M386 470c162 0 241 -115 241 -234c0 -157 -118 -252 -277 -252c-69 0 -130 18 -176 51c-82 60 -118 166 -118 306c0 251 104 387 296 387c144 0 245 -73 265 -202h-154c-12 55 -51 79 -110 79c-87 0 -135 -55 -142 -214c38 50 98 79 175 79zM350 115c73 0 118 51 118 117
s-45 117 -118 117s-119 -50 -119 -117s46 -117 119 -117z" />
    <glyph glyph-name="seven.tf" horiz-adv-x="677" 
d="M74 712h529v-136c-158 -147 -233 -302 -236 -576h-174c3 229 100 434 243 572h-362v140z" />
    <glyph glyph-name="eight.tf" horiz-adv-x="677" 
d="M508 375c83 -32 118 -93 118 -173c0 -128 -109 -218 -292 -218c-184 0 -293 90 -293 218c0 80 35 141 118 173c-59 35 -88 89 -88 154c0 123 103 199 263 199c159 0 262 -76 262 -199c0 -65 -29 -119 -88 -154zM334 608c-70 0 -113 -34 -113 -91c0 -55 41 -90 113 -90
c71 0 112 35 112 90c0 57 -43 91 -112 91zM334 113c84 0 126 40 126 103c0 65 -45 102 -126 102c-82 0 -127 -37 -127 -102c0 -63 43 -103 127 -103z" />
    <glyph glyph-name="nine.tf" horiz-adv-x="677" 
d="M506 674c82 -60 117 -165 117 -305c0 -244 -96 -387 -290 -387c-149 0 -251 73 -271 202h155c12 -55 52 -79 114 -79c89 0 131 61 138 214c-37 -50 -98 -79 -175 -79c-162 0 -242 115 -242 234c0 156 119 252 278 252c69 0 130 -18 176 -52zM330 361c72 0 118 50 118 117
s-46 117 -118 117c-73 0 -119 -51 -119 -117s46 -117 119 -117z" />
    <glyph glyph-name="zero.tf.zero" horiz-adv-x="677" 
d="M339 728c201 0 303 -136 303 -372s-102 -372 -303 -372s-304 136 -304 372s103 372 304 372zM339 588c-82 0 -128 -63 -128 -232c0 -39 2 -73 7 -101l206 293c-21 28 -50 40 -85 40zM339 124c82 0 127 63 127 232c0 42 -3 78 -8 107l-207 -296c21 -30 51 -43 88 -43z" />
    <glyph glyph-name="ellipsis" unicode="&#x2026;" horiz-adv-x="775" 
d="M34 0v172h176v-172h-176zM301 0v172h176v-172h-176zM565 0v172h176v-172h-176z" />
    <glyph glyph-name="exclamdown" unicode="&#xa1;" horiz-adv-x="244" 
d="M34 414v172h176v-172h-176zM38 -126v174l42 300h84l43 -300v-174h-169z" />
    <glyph glyph-name="questiondown" unicode="&#xbf;" horiz-adv-x="547" 
d="M195 414v172h177v-172h-177zM268 -142c-150 0 -249 67 -249 188c0 69 35 125 104 173c30 22 57 42 70 61c14 18 15 35 15 69h150c0 -71 -4 -92 -24 -125c-16 -29 -45 -50 -74 -69c-37 -25 -73 -49 -73 -92c0 -46 25 -75 86 -75c72 0 98 31 99 107h157
c1 -159 -91 -237 -261 -237z" />
    <glyph glyph-name="periodcentered" unicode="&#xb7;" horiz-adv-x="244" 
d="M34 270v172h176v-172h-176z" />
    <glyph glyph-name="bullet" unicode="&#x2022;" horiz-adv-x="413" 
d="M54 135v298h305v-298h-305z" />
    <glyph glyph-name="uni203D" unicode="&#x203d;" horiz-adv-x="547" 
d="M279 728c150 0 249 -67 249 -188c0 -69 -35 -125 -103 -173c-30 -22 -58 -42 -71 -61c-14 -18 -15 -35 -15 -69h-147l-1 141l41 171h78l16 -90c20 17 34 37 34 64c0 46 -25 75 -86 75c-72 0 -97 -31 -98 -107h-158c-1 159 91 237 261 237zM177 0v172h176v-172h-176z" />
    <glyph glyph-name="uni2E18" unicode="&#x2e18;" horiz-adv-x="547" 
d="M370 586v-172h-176v172h176zM529 95c1 -159 -91 -237 -261 -237c-150 0 -249 67 -249 188c0 69 35 125 104 173c30 22 57 42 70 61c14 18 15 35 15 69h147l2 -141l-42 -171h-78l-16 89c-20 -17 -34 -36 -34 -63c0 -46 25 -75 86 -75c72 0 98 31 99 107h157z" />
    <glyph glyph-name="period.ss01" horiz-adv-x="265" 
d="M134 -11c-56 0 -100 43 -100 98c0 53 44 96 100 96c52 0 97 -43 97 -96c0 -55 -45 -98 -97 -98z" />
    <glyph glyph-name="comma.ss01" horiz-adv-x="266" 
d="M125 181c76 0 112 -57 112 -137c0 -121 -52 -202 -178 -212l-15 -2v85l14 2c44 4 65 26 71 75h-2c-55 0 -98 35 -98 93c0 57 43 96 96 96z" />
    <glyph glyph-name="colon.ss01" horiz-adv-x="265" 
d="M134 299c-56 0 -100 43 -100 98c0 53 44 95 100 95c52 0 97 -42 97 -95c0 -55 -45 -98 -97 -98zM134 -11c-56 0 -100 43 -100 98c0 53 44 96 100 96c52 0 97 -43 97 -96c0 -55 -45 -98 -97 -98z" />
    <glyph glyph-name="semicolon.ss01" horiz-adv-x="278" 
d="M145 300c-55 0 -99 42 -99 97c0 54 44 96 99 96c53 0 98 -42 98 -96c0 -55 -45 -97 -98 -97zM130 181c76 0 112 -57 112 -137c0 -121 -52 -202 -178 -212l-15 -2v85l14 2c44 4 65 26 71 75h-2c-55 0 -98 35 -98 93c0 57 43 96 96 96z" />
    <glyph glyph-name="ellipsis.ss01" horiz-adv-x="791" 
d="M134 -11c-56 0 -100 43 -100 98c0 53 44 96 100 96c52 0 97 -43 97 -96c0 -55 -45 -98 -97 -98zM400 -11c-56 0 -100 43 -100 98c0 53 44 96 100 96c53 0 97 -43 97 -96c0 -55 -44 -98 -97 -98zM660 -11c-55 0 -99 43 -99 98c0 53 44 96 99 96c53 0 97 -43 97 -96
c0 -55 -44 -98 -97 -98z" />
    <glyph glyph-name="exclam.ss01" horiz-adv-x="265" 
d="M91 238l-43 300v174h169v-174l-43 -300h-83zM134 -11c-56 0 -100 43 -100 98c0 53 44 96 100 96c52 0 97 -43 97 -96c0 -55 -45 -98 -97 -98z" />
    <glyph glyph-name="exclamdown.ss01" horiz-adv-x="265" 
d="M134 403c-56 0 -100 43 -100 96c0 55 44 98 100 98c52 0 97 -43 97 -98c0 -53 -45 -96 -97 -96zM48 -126v174l43 300h83l43 -300v-174h-169z" />
    <glyph glyph-name="question.ss01" horiz-adv-x="547" 
d="M189 237c0 71 5 92 24 125c16 29 45 50 74 69c38 25 73 49 73 92c0 46 -25 75 -86 75c-72 0 -97 -31 -98 -107h-158c-1 159 91 237 261 237c150 0 249 -67 249 -188c0 -69 -35 -125 -103 -173c-30 -22 -58 -42 -71 -61c-14 -18 -15 -35 -15 -69h-150zM267 -11
c-55 0 -99 43 -99 98c0 53 44 96 99 96c53 0 97 -43 97 -96c0 -55 -44 -98 -97 -98z" />
    <glyph glyph-name="questiondown.ss01" horiz-adv-x="579" 
d="M295 403c-53 0 -97 43 -97 96c0 55 44 98 97 98c56 0 100 -43 100 -98c0 -53 -44 -96 -100 -96zM283 -142c-150 0 -249 67 -249 188c0 69 35 125 104 173c30 22 57 42 70 61c14 18 15 35 15 69h150c0 -71 -4 -92 -24 -125c-16 -29 -45 -50 -74 -69
c-37 -25 -73 -49 -73 -92c0 -46 25 -75 86 -75c72 0 98 31 99 107h157c1 -159 -91 -237 -261 -237z" />
    <glyph glyph-name="periodcentered.ss01" horiz-adv-x="265" 
d="M134 262c-56 0 -100 43 -100 98c0 53 44 96 100 96c52 0 97 -43 97 -96c0 -55 -45 -98 -97 -98z" />
    <glyph glyph-name="bullet.ss01" horiz-adv-x="413" 
d="M208 118c-96 0 -172 74 -172 169c0 93 76 165 172 165c92 0 169 -72 169 -165c0 -95 -77 -169 -169 -169z" />
    <glyph glyph-name="uni203D.ss01" horiz-adv-x="547" 
d="M279 728c150 0 249 -67 249 -188c0 -69 -35 -125 -103 -173c-30 -22 -58 -42 -71 -61c-14 -18 -15 -35 -15 -69h-147l-1 141l41 171h78l16 -90c20 17 34 37 34 64c0 46 -25 75 -86 75c-72 0 -97 -31 -98 -107h-158c-1 159 91 237 261 237zM268 183c53 0 97 -43 97 -96
c0 -55 -44 -98 -97 -98c-56 0 -100 43 -100 98c0 53 44 96 100 96z" />
    <glyph glyph-name="uni2E18.ss01" horiz-adv-x="547" 
d="M279 403c-53 0 -97 43 -97 96c0 55 44 98 97 98c56 0 100 -43 100 -98c0 -53 -44 -96 -100 -96zM529 95c1 -159 -91 -237 -261 -237c-150 0 -249 67 -249 188c0 69 35 125 104 173c30 22 57 42 70 61c14 18 15 35 15 69h147l2 -141l-42 -171h-78l-16 89
c-20 -17 -34 -36 -34 -63c0 -46 25 -75 86 -75c72 0 98 31 99 107h157z" />
    <glyph glyph-name="period.tf.ss01" horiz-adv-x="677" 
d="M340 -11c-55 0 -100 43 -100 98c0 53 45 96 100 96c53 0 97 -43 97 -96c0 -55 -44 -98 -97 -98z" />
    <glyph glyph-name="comma.tf.ss01" horiz-adv-x="677" 
d="M331 181c75 0 112 -57 112 -137c0 -121 -53 -202 -179 -212l-15 -2v85l15 2c44 4 64 26 70 75h-2c-54 0 -97 35 -97 93c0 57 43 96 96 96z" />
    <glyph glyph-name="colon.tf.ss01" horiz-adv-x="677" 
d="M340 299c-55 0 -100 43 -100 98c0 53 45 95 100 95c53 0 97 -42 97 -95c0 -55 -44 -98 -97 -98zM340 -11c-55 0 -100 43 -100 98c0 53 45 96 100 96c53 0 97 -43 97 -96c0 -55 -44 -98 -97 -98z" />
    <glyph glyph-name="semicolon.tf.ss01" horiz-adv-x="677" 
d="M345 300c-55 0 -100 42 -100 97c0 54 45 96 100 96c53 0 97 -42 97 -96c0 -55 -44 -97 -97 -97zM330 181c75 0 112 -57 112 -137c0 -121 -53 -202 -178 -212l-16 -2v85l15 2c44 4 64 26 70 75h-2c-54 0 -97 35 -97 93c0 57 43 96 96 96z" />
    <glyph glyph-name="period.tf" horiz-adv-x="677" 
d="M251 0v172h176v-172h-176z" />
    <glyph glyph-name="comma.tf" horiz-adv-x="677" 
d="M251 172h176v-185c0 -107 -55 -155 -154 -156l-22 -1v86h23c35 1 52 21 52 67v17h-75v172z" />
    <glyph glyph-name="colon.tf" horiz-adv-x="677" 
d="M251 319v171h176v-171h-176zM251 0v172h176v-172h-176z" />
    <glyph glyph-name="semicolon.tf" horiz-adv-x="677" 
d="M251 490h176v-172h-176v172zM251 0v172h176v-185c0 -107 -55 -155 -154 -156l-22 -1v86h23c35 1 52 21 52 67v17h-75z" />
    <glyph glyph-name="uni208D" unicode="&#x208d;" horiz-adv-x="184" 
d="M82 -276c-41 96 -59 170 -59 284c0 119 18 193 59 288h102c-35 -85 -58 -175 -58 -288c0 -101 22 -192 58 -284h-102z" />
    <glyph glyph-name="uni208E" unicode="&#x208e;" horiz-adv-x="184" 
d="M0 -276c35 92 57 183 57 284c0 112 -22 203 -57 287h101c42 -94 60 -169 60 -287c0 -115 -18 -188 -60 -284h-101z" />
    <glyph glyph-name="parenleft.sups" unicode="&#x207d;" horiz-adv-x="184" 
d="M82 450c-41 96 -59 169 -59 284c0 118 18 193 59 287h102c-35 -84 -58 -175 -58 -287c0 -101 22 -192 58 -284h-102z" />
    <glyph glyph-name="parenright.sups" unicode="&#x207e;" horiz-adv-x="184" 
d="M0 450c35 92 57 183 57 284c0 112 -22 203 -57 287h101c42 -94 60 -169 60 -287c0 -115 -18 -188 -60 -284h-101z" />
    <glyph glyph-name="parenleft.case" horiz-adv-x="300" 
d="M154 -74c-77 133 -115 256 -115 428c0 176 38 300 115 432h143c-70 -130 -99 -262 -99 -432c0 -161 28 -291 99 -428h-143z" />
    <glyph glyph-name="parenright.case" horiz-adv-x="300" 
d="M3 -74c71 137 99 267 99 428c0 170 -29 302 -99 432h143c77 -132 115 -256 115 -432c0 -172 -38 -295 -115 -428h-143z" />
    <glyph glyph-name="braceleft.case" horiz-adv-x="376" 
d="M299 -74c-119 0 -188 54 -188 177v125c0 37 -18 61 -82 63v130c64 2 82 26 82 63v125c0 123 69 177 188 177h64v-127h-44c-51 0 -64 -20 -64 -65v-145c0 -53 -28 -89 -108 -92v-2c80 -3 108 -39 108 -92v-146c0 -44 13 -64 64 -64h44v-127h-64z" />
    <glyph glyph-name="braceright.case" horiz-adv-x="376" 
d="M13 -74v127h44c51 0 64 20 64 64v146c0 53 27 89 107 92v2c-80 3 -107 39 -107 92v145c0 45 -13 65 -64 65h-44v127h64c118 0 188 -54 188 -177v-125c0 -37 18 -61 82 -63v-130c-64 -2 -82 -26 -82 -63v-125c0 -123 -70 -177 -188 -177h-64z" />
    <glyph glyph-name="bracketleft.case" horiz-adv-x="366" 
d="M54 -74v860h299v-130h-151v-600h151v-130h-299z" />
    <glyph glyph-name="bracketright.case" horiz-adv-x="366" 
d="M13 -74v130h151v600h-151v130h299v-860h-299z" />
    <glyph glyph-name="uni00AD" unicode="&#xad;" horiz-adv-x="360" 
d="M29 215v131h302v-131h-302z" />
    <glyph glyph-name="endash" unicode="&#x2013;" horiz-adv-x="528" 
d="M29 215v131h470v-131h-470z" />
    <glyph glyph-name="emdash" unicode="&#x2014;" horiz-adv-x="980" 
d="M29 215v131h922v-131h-922z" />
    <glyph glyph-name="uni2011" unicode="&#x2011;" horiz-adv-x="360" 
d="M29 215v131h302v-131h-302z" />
    <glyph glyph-name="hyphen.case" horiz-adv-x="360" 
d="M29 299v131h302v-131h-302z" />
    <glyph glyph-name="endash.case" horiz-adv-x="528" 
d="M29 299v131h470v-131h-470z" />
    <glyph glyph-name="emdash.case" horiz-adv-x="980" 
d="M29 299v131h922v-131h-922z" />
    <glyph glyph-name="hyphen.tf" horiz-adv-x="677" 
d="M188 215v131h302v-131h-302z" />
    <glyph glyph-name="quotesinglbase" unicode="&#x201a;" horiz-adv-x="231" 
d="M34 158h163v-170c0 -99 -51 -144 -142 -145h-21v79h22c32 1 47 20 47 62v16h-69v158z" />
    <glyph glyph-name="quotedblbase" unicode="&#x201e;" horiz-adv-x="441" 
d="M34 0v158h163v-170c0 -99 -51 -144 -142 -145h-21v79h22c32 1 47 20 47 62v16h-69zM244 158h163v-170c0 -99 -51 -144 -142 -145h-21v79h22c32 1 48 20 48 62v16h-70v158z" />
    <glyph glyph-name="quotedblleft" unicode="&#x201c;" horiz-adv-x="441" 
d="M34 566c0 99 51 144 142 146h21v-79l-22 -1c-32 -1 -48 -19 -48 -61v-16h70v-158h-163v169zM385 632c-32 -1 -47 -19 -47 -61v-16h69v-158h-163v169c0 99 51 144 142 146h21v-79z" />
    <glyph glyph-name="quotedblright" unicode="&#x201d;" horiz-adv-x="441" 
d="M34 554v158h163v-170c0 -99 -51 -144 -142 -145h-21v79h22c32 1 47 20 47 62v16h-69zM244 712h163v-170c0 -99 -51 -144 -142 -145h-21v79h22c32 1 48 20 48 62v16h-70v158z" />
    <glyph glyph-name="quoteleft" unicode="&#x2018;" horiz-adv-x="231" 
d="M175 633c-32 -1 -48 -20 -48 -62v-16h70v-158h-163v170c0 99 51 143 142 145h21v-79h-22z" />
    <glyph glyph-name="quoteright" unicode="&#x2019;" horiz-adv-x="231" 
d="M34 711h163v-170c0 -99 -51 -143 -142 -145h-21v79h22c32 1 47 20 47 62v16h-69v158z" />
    <glyph glyph-name="guillemotleft" unicode="&#xab;" horiz-adv-x="483" 
d="M54 186v155l170 139v-145l-88 -71l88 -72v-145zM429 480v-145l-88 -71l88 -72v-145l-170 139v155z" />
    <glyph glyph-name="guillemotright" unicode="&#xbb;" horiz-adv-x="483" 
d="M54 335v145l170 -139v-155l-170 -139v145l88 72zM259 480l170 -139v-155l-170 -139v145l88 72l-88 71v145z" />
    <glyph glyph-name="guilsinglleft" unicode="&#x2039;" horiz-adv-x="278" 
d="M224 480v-145l-88 -71l88 -72v-145l-170 139v155z" />
    <glyph glyph-name="guilsinglright" unicode="&#x203a;" horiz-adv-x="278" 
d="M54 480l170 -139v-155l-170 -139v145l88 72l-88 71v145z" />
    <glyph glyph-name="guillemotleft.case" horiz-adv-x="483" 
d="M54 287v155l170 139v-145l-88 -71l88 -72v-145zM429 581v-145l-88 -71l88 -72v-145l-170 139v155z" />
    <glyph glyph-name="guillemotright.case" horiz-adv-x="483" 
d="M54 436v145l170 -139v-155l-170 -139v145l88 72zM259 581l170 -139v-155l-170 -139v145l88 72l-88 71v145z" />
    <glyph glyph-name="guilsinglleft.case" horiz-adv-x="278" 
d="M224 578v-145l-88 -71l88 -72v-145l-170 139v155z" />
    <glyph glyph-name="guilsinglright.case" horiz-adv-x="278" 
d="M54 578l170 -139v-155l-170 -139v145l88 72l-88 71v145z" />
    <glyph glyph-name="quotesinglbase.ss01" horiz-adv-x="250" 
d="M118 167c69 0 103 -53 103 -126c0 -113 -49 -194 -175 -198h-4v79h6c46 2 67 24 72 71h-1c-51 0 -90 32 -90 85s39 89 89 89z" />
    <glyph glyph-name="quotedblbase.ss01" horiz-adv-x="478" 
d="M118 167c69 0 103 -53 103 -126c0 -113 -49 -194 -175 -198h-4v79h6c46 2 67 24 72 71h-1c-51 0 -90 32 -90 85s39 89 89 89zM346 167c69 0 103 -53 103 -126c0 -113 -49 -194 -174 -198h-5v79h6c47 2 67 24 72 71h-1c-50 0 -90 32 -90 85s40 89 89 89z" />
    <glyph glyph-name="quotedblleft.ss01" horiz-adv-x="478" 
d="M131 562c50 0 90 -32 90 -85s-40 -89 -89 -89c-69 0 -103 52 -103 126c0 112 49 194 174 198h5v-79h-6c-47 -2 -67 -24 -72 -71h1zM359 562c51 0 90 -32 90 -85s-39 -89 -89 -89c-69 0 -103 52 -103 126c0 112 49 194 175 198h4v-79h-6c-46 -2 -67 -24 -72 -71h1z" />
    <glyph glyph-name="quotedblright.ss01" horiz-adv-x="478" 
d="M118 716c69 0 103 -53 103 -127c0 -112 -49 -194 -175 -197l-4 -1v80h6c46 2 66 24 72 70h-1c-51 0 -90 33 -90 86s39 89 89 89zM346 716c69 0 103 -53 103 -127c0 -112 -49 -194 -174 -197l-5 -1v80h6c47 2 67 24 72 70h-1c-50 0 -90 33 -90 86s40 89 89 89z" />
    <glyph glyph-name="quoteleft.ss01" horiz-adv-x="250" 
d="M131 562c50 0 90 -33 90 -85c0 -53 -40 -89 -89 -89c-69 0 -103 52 -103 126c0 112 49 194 174 197l5 1v-79l-6 -1c-47 -2 -67 -24 -72 -70h1z" />
    <glyph glyph-name="quoteright.ss01" horiz-adv-x="250" 
d="M118 716c69 0 103 -53 103 -127c0 -112 -49 -194 -175 -197l-4 -1v80h6c46 2 66 24 72 70h-1c-51 0 -90 33 -90 86s39 89 89 89z" />
    <glyph glyph-name="hyphen.dnom" horiz-adv-x="211" 
d="M15 155v82h181v-82h-181z" />
    <glyph glyph-name="parenleft.dnom" horiz-adv-x="184" 
d="M82 -79c-41 95 -59 169 -59 284c0 118 18 193 59 287h102c-35 -85 -58 -175 -58 -287c0 -102 22 -192 58 -284h-102z" />
    <glyph glyph-name="parenright.dnom" horiz-adv-x="184" 
d="M0 -78c35 92 57 183 57 284c0 113 -22 203 -57 288h101c42 -95 60 -169 60 -288c0 -114 -18 -188 -60 -284h-101z" />
    <glyph glyph-name="braceleft.dnom" horiz-adv-x="222" 
d="M193 -80c-78 0 -125 41 -125 118v83c0 19 -9 34 -48 35v100c39 1 48 17 48 35v83c0 77 46 118 125 118h24v-97h-10c-26 0 -32 -11 -32 -35v-97c0 -30 -17 -54 -73 -56v-1c54 -2 73 -26 73 -56v-99c0 -19 2 -34 32 -34h10v-97h-24z" />
    <glyph glyph-name="braceright.dnom" horiz-adv-x="222" 
d="M5 -80v97h10c29 0 32 15 32 34v99c0 30 19 54 73 56v1c-56 2 -73 26 -73 56v97c0 24 -6 35 -32 35h-10v97h24c79 0 125 -41 125 -118v-83c0 -18 9 -34 48 -35v-100c-39 -1 -48 -16 -48 -35v-83c0 -77 -47 -118 -125 -118h-24z" />
    <glyph glyph-name="bracketleft.dnom" horiz-adv-x="228" 
d="M21 -80v571h202v-97h-95v-377h95v-97h-202z" />
    <glyph glyph-name="bracketright.dnom" horiz-adv-x="228" 
d="M5 -80v97h95v377h-95v97h202v-571h-202z" />
    <glyph glyph-name="period.dnom" horiz-adv-x="144" 
d="M16 0v109h111v-109h-111z" />
    <glyph glyph-name="comma.dnom" horiz-adv-x="144" 
d="M16 109h111v-117c0 -69 -34 -100 -97 -101l-14 -1v55h14c23 1 34 14 34 43v12h-48v109z" />
    <glyph glyph-name="hyphen.numr" horiz-adv-x="211" 
d="M15 454v82h181v-82h-181z" />
    <glyph glyph-name="parenleft.numr" horiz-adv-x="184" 
d="M82 219c-41 96 -59 170 -59 284c0 119 18 193 59 288h102c-35 -85 -58 -175 -58 -288c0 -101 22 -192 58 -284h-102z" />
    <glyph glyph-name="parenright.numr" horiz-adv-x="184" 
d="M0 221c35 92 57 183 57 284c0 112 -22 203 -57 287h101c42 -94 60 -169 60 -287c0 -115 -18 -188 -60 -284h-101z" />
    <glyph glyph-name="braceleft.numr" horiz-adv-x="222" 
d="M193 219c-78 0 -125 41 -125 118v83c0 19 -9 34 -48 35v100c39 1 48 17 48 35v83c0 77 46 118 125 118h24v-97h-10c-26 0 -32 -11 -32 -35v-97c0 -30 -17 -54 -73 -56v-1c54 -2 73 -26 73 -56v-99c0 -19 2 -34 32 -34h10v-97h-24z" />
    <glyph glyph-name="braceright.numr" horiz-adv-x="222" 
d="M29 219h-24v97h10c29 0 32 15 32 34v99c0 30 19 54 73 56v1c-56 2 -73 26 -73 56v97c0 24 -6 35 -32 35h-10v97h24c79 0 125 -41 125 -118v-83c0 -18 9 -34 48 -35v-100c-39 -1 -48 -16 -48 -35v-83c0 -77 -47 -118 -125 -118z" />
    <glyph glyph-name="bracketleft.numr" horiz-adv-x="228" 
d="M21 219v572h202v-97h-95v-378h95v-97h-202z" />
    <glyph glyph-name="bracketright.numr" horiz-adv-x="228" 
d="M207 219h-202v97h95v378h-95v97h202v-572z" />
    <glyph glyph-name="period.numr" horiz-adv-x="144" 
d="M16 299v109h111v-109h-111z" />
    <glyph glyph-name="comma.numr" horiz-adv-x="144" 
d="M16 408h111v-117c0 -69 -34 -100 -97 -101l-14 -1v55h14c23 1 34 14 34 43v12h-48v109z" />
    <glyph glyph-name="period.dnom.ss01" horiz-adv-x="157" 
d="M79 -7c-35 0 -63 27 -63 62c0 34 28 60 63 60c34 0 62 -26 62 -60c0 -35 -28 -62 -62 -62z" />
    <glyph glyph-name="comma.dnom.ss01" horiz-adv-x="165" 
d="M79 114c45 0 70 -35 70 -89v-2c0 -90 -48 -127 -112 -132l-15 -1v55l11 1c31 3 48 17 49 49h-3c-35 0 -63 23 -63 60c0 34 28 59 63 59z" />
    <glyph glyph-name="period.numr.ss01" horiz-adv-x="157" 
d="M78 292c-34 0 -62 27 -62 62c0 34 28 60 62 60s63 -26 63 -60c0 -35 -29 -62 -63 -62z" />
    <glyph glyph-name="comma.numr.ss01" horiz-adv-x="165" 
d="M79 413c45 0 70 -35 70 -89v-2c0 -90 -48 -127 -112 -132l-15 -1v55l11 1c31 3 48 17 49 49h-3c-35 0 -63 23 -63 60c0 34 28 59 63 59z" />
    <glyph glyph-name="period.subs.ss01" horiz-adv-x="157" 
d="M79 -203c-35 0 -63 27 -63 62c0 34 28 60 63 60c34 0 62 -26 62 -60c0 -35 -28 -62 -62 -62z" />
    <glyph glyph-name="comma.subs.ss01" horiz-adv-x="165" 
d="M79 -82c45 0 70 -35 70 -89v-2c0 -90 -48 -127 -112 -132l-15 -1v55l11 1c31 3 48 17 49 49h-3c-35 0 -63 23 -63 60c0 34 28 59 63 59z" />
    <glyph glyph-name="period.sups.ss01" horiz-adv-x="157" 
d="M79 521c-35 0 -63 27 -63 62c0 34 28 60 63 60c34 0 62 -26 62 -60c0 -35 -28 -62 -62 -62z" />
    <glyph glyph-name="comma.sups.ss01" horiz-adv-x="165" 
d="M79 642c45 0 70 -35 70 -89v-2c0 -90 -48 -127 -112 -132l-15 -1v55l11 1c31 3 48 17 49 49h-3c-35 0 -63 23 -63 60c0 34 28 59 63 59z" />
    <glyph glyph-name="hyphen.subs" horiz-adv-x="211" 
d="M15 -31v82h181v-82h-181z" />
    <glyph glyph-name="braceleft.subs" horiz-adv-x="222" 
d="M193 -276c-78 0 -125 41 -125 118v83c0 19 -9 34 -48 35v100c39 1 48 17 48 35v83c0 77 46 118 125 118h24v-97h-10c-26 0 -32 -11 -32 -35v-97c0 -30 -17 -54 -73 -56v-1c54 -2 73 -26 73 -56v-99c0 -19 2 -34 32 -34h10v-97h-24z" />
    <glyph glyph-name="braceright.subs" horiz-adv-x="222" 
d="M5 -276v97h10c29 0 32 15 32 34v99c0 30 19 54 73 56v1c-56 2 -73 26 -73 56v97c0 24 -6 35 -32 35h-10v97h24c79 0 125 -41 125 -118v-83c0 -18 9 -34 48 -35v-100c-39 -1 -48 -16 -48 -35v-83c0 -77 -47 -118 -125 -118h-24z" />
    <glyph glyph-name="bracketleft.subs" horiz-adv-x="228" 
d="M21 -276v571h202v-97h-95v-377h95v-97h-202z" />
    <glyph glyph-name="bracketright.subs" horiz-adv-x="228" 
d="M5 -275v97h95v377h-95v97h202v-571h-202z" />
    <glyph glyph-name="period.subs" horiz-adv-x="144" 
d="M16 -196v109h111v-109h-111z" />
    <glyph glyph-name="comma.subs" horiz-adv-x="144" 
d="M16 -87h111v-117c0 -69 -34 -100 -97 -101l-14 -1v55h14c23 1 34 14 34 43v12h-48v109z" />
    <glyph glyph-name="hyphen.sups" horiz-adv-x="211" 
d="M15 683v82h181v-82h-181z" />
    <glyph glyph-name="braceleft.sups" horiz-adv-x="222" 
d="M193 444c-78 0 -125 41 -125 118v83c0 19 -9 34 -48 35v100c39 1 48 17 48 35v83c0 77 46 118 125 118h24v-97h-10c-26 0 -32 -11 -32 -35v-97c0 -30 -17 -54 -73 -56v-1c54 -2 73 -26 73 -56v-99c0 -19 2 -34 32 -34h10v-97h-24z" />
    <glyph glyph-name="braceright.sups" horiz-adv-x="222" 
d="M5 444v97h10c29 0 32 15 32 34v99c0 30 19 54 73 56v1c-56 2 -73 26 -73 56v97c0 24 -6 35 -32 35h-10v97h24c79 0 125 -41 125 -118v-83c0 -18 9 -34 48 -35v-100c-39 -1 -48 -16 -48 -35v-83c0 -77 -47 -118 -125 -118h-24z" />
    <glyph glyph-name="bracketleft.sups" horiz-adv-x="228" 
d="M21 444v571h202v-97h-95v-377h95v-97h-202z" />
    <glyph glyph-name="bracketright.sups" horiz-adv-x="228" 
d="M5 444v97h95v377h-95v97h202v-571h-202z" />
    <glyph glyph-name="period.sups" horiz-adv-x="144" 
d="M16 528v109h111v-109h-111z" />
    <glyph glyph-name="comma.sups" horiz-adv-x="144" 
d="M16 637h111v-117c0 -69 -34 -100 -97 -101l-14 -1v55h14c23 1 34 14 34 43v12h-48v109z" />
    <glyph glyph-name="uni00A0" unicode="&#xa0;" horiz-adv-x="233" 
 />
    <glyph glyph-name="thinspace" unicode="&#x2009;" horiz-adv-x="247" 
 />
    <glyph glyph-name="uniFEFF" unicode="&#xfeff;" 
 />
    <glyph glyph-name="uni20BF" unicode="&#x20bf;" horiz-adv-x="677" 
d="M660 207c0 -115 -70 -195 -222 -206v-117h-74v116h-85v-116h-74v116h-151v712h151v116h74v-116h85v116h74v-118c141 -15 193 -96 193 -180c0 -71 -36 -123 -95 -151c81 -30 124 -101 124 -172zM463 503c0 44 -29 74 -82 74h-158v-152h158c53 0 82 31 82 78zM392 135
c60 0 94 29 94 81c0 55 -35 81 -94 81h-169v-162h169z" />
    <glyph glyph-name="cent" unicode="&#xa2;" horiz-adv-x="558" 
d="M544 203c-10 -122 -95 -200 -219 -213v-106h-70v106c-141 14 -231 116 -231 268s89 254 231 268v102h70v-102c122 -12 203 -88 216 -204h-155c-7 41 -29 65 -61 74v-275c34 10 59 36 64 82h155zM182 258c0 -80 28 -124 73 -137v275c-46 -13 -73 -57 -73 -138z" />
    <glyph glyph-name="currency" unicode="&#xa4;" horiz-adv-x="584" 
d="M539 356c0 -56 -19 -108 -51 -149l72 -72l-54 -54l-75 75c-39 -25 -85 -39 -136 -39c-52 0 -100 15 -139 42l-78 -78l-54 54l76 76c-31 40 -49 90 -49 145s18 105 49 145l-76 76l54 54l78 -78c39 27 87 42 139 42c51 0 97 -14 136 -39l75 75l54 -54l-72 -72
c32 -41 51 -93 51 -149zM295 242c64 0 114 48 114 114s-50 114 -114 114s-114 -48 -114 -114s50 -114 114 -114z" />
    <glyph glyph-name="Euro" unicode="&#x20ac;" horiz-adv-x="747" 
d="M559 253h165c-23 -138 -114 -272 -317 -272c-167 0 -283 101 -318 265h-89v75h79c-1 11 -1 22 -1 34c0 14 0 27 1 40h-79v76h90c37 159 151 257 317 257c201 0 290 -134 316 -265h-167c-19 75 -64 122 -150 122c-77 0 -124 -41 -144 -114h167v-76h-180
c-1 -12 -1 -25 -1 -38c0 -12 0 -24 1 -36h180v-75h-169c21 -77 67 -122 147 -122c87 0 134 48 152 129z" />
    <glyph glyph-name="florin" unicode="&#x192;" horiz-adv-x="539" 
d="M473 595c-52 0 -70 -19 -79 -79l-14 -96h108v-114h-125l-49 -325c-19 -133 -81 -189 -207 -189c-28 0 -59 2 -86 5v123c19 -3 33 -4 45 -4c52 0 70 19 78 79l47 311h-99v114h116l16 110c20 133 82 189 207 189c28 0 60 -2 86 -6v-122c-19 3 -33 4 -44 4z" />
    <glyph glyph-name="uni20BA" unicode="&#x20ba;" horiz-adv-x="648" 
d="M452 372h174c0 -225 -149 -372 -381 -372h-169v301l-76 -32v82l76 32v69l-76 -32v82l76 32v178h169v-106l166 71v-82l-166 -71v-69l166 70v-82l-166 -70v-226c129 0 207 84 207 225z" />
    <glyph glyph-name="uni20BC" unicode="&#x20bc;" horiz-adv-x="788" 
d="M494 538c163 0 250 -97 250 -258v-280h-164v281c0 76 -29 112 -104 116v-327h-164v327c-74 -3 -103 -40 -103 -116v-281h-165v280c0 161 92 258 255 258h13v174h164v-174h18z" />
    <glyph glyph-name="uni20B9" unicode="&#x20b9;" horiz-adv-x="626" 
d="M602 712v-75h-135c30 -26 50 -62 57 -107h78v-75h-78c-18 -117 -121 -184 -255 -186l265 -269h-210l-270 277v94h161c76 0 124 31 138 84h-299v75h299c-14 53 -61 84 -138 84h-161v98h548z" />
    <glyph glyph-name="sterling" unicode="&#xa3;" horiz-adv-x="575" 
d="M299 259c0 -42 -19 -80 -48 -108h306v-151h-524v133c70 27 100 60 100 115c0 16 -3 33 -8 51h-110v76h79c-21 47 -42 98 -42 148c0 129 102 205 253 205c167 0 244 -85 252 -232h-159c-3 59 -25 98 -95 98c-49 0 -80 -24 -80 -71c0 -29 15 -67 33 -108l16 -40h193v-76
h-170c3 -14 4 -27 4 -40z" />
    <glyph glyph-name="uni20B8" unicode="&#x20b8;" horiz-adv-x="632" 
d="M13 712h607v-151h-607v151zM13 314v151h607v-151h-219v-314h-170v314h-218z" />
    <glyph glyph-name="yen" unicode="&#xa5;" horiz-adv-x="700" 
d="M700 712l-232 -382h120v-75h-152v-75h152v-75h-152v-105h-169v105h-154v75h154v75h-154v75h121l-234 382h191l62 -103c34 -60 69 -119 102 -177c32 59 66 121 99 178l60 102h186z" />
    <glyph glyph-name="uni2219" unicode="&#x2219;" horiz-adv-x="527" 
d="M158 253v206h211v-206h-211z" />
    <glyph glyph-name="uni2215" unicode="&#x2215;" horiz-adv-x="528" 
d="M29 0l317 712h153l-317 -712h-153z" />
    <glyph glyph-name="minus" unicode="&#x2212;" horiz-adv-x="528" 
d="M29 291v131h470v-131h-470z" />
    <glyph glyph-name="multiply" unicode="&#xd7;" horiz-adv-x="528" 
d="M489 488l-132 -131l132 -131l-93 -93l-132 131l-132 -131l-93 93l132 131l-132 131l93 93l132 -131l132 131z" />
    <glyph glyph-name="divide" unicode="&#xf7;" horiz-adv-x="528" 
d="M193 483v126h143v-126h-143zM29 291v131h470v-131h-470zM193 104v126h143v-126h-143z" />
    <glyph glyph-name="notequal" unicode="&#x2260;" horiz-adv-x="528" 
d="M499 401h-170l-32 -90h202v-116h-242l-40 -113l-88 31l29 82h-129v116h170l31 90h-201v116h242l40 113l87 -31l-29 -82h130v-116z" />
    <glyph glyph-name="greaterequal" unicode="&#x2265;" horiz-adv-x="528" 
d="M29 614l470 -164v-138l-470 -164v130l55 21c92 31 175 57 262 82c-87 25 -170 51 -262 81l-55 21v131zM29 0v117h470v-117h-470z" />
    <glyph glyph-name="lessequal" unicode="&#x2264;" horiz-adv-x="528" 
d="M499 483l-56 -21c-92 -30 -174 -56 -261 -81c87 -25 169 -51 261 -82l56 -21v-130l-470 164v138l470 164v-131zM29 0v117h470v-117h-470z" />
    <glyph glyph-name="plusminus" unicode="&#xb1;" horiz-adv-x="528" 
d="M335 456h164v-131h-164v-130h-143v130h-163v131h163v131h143v-131zM29 0v131h470v-131h-470z" />
    <glyph glyph-name="approxequal" unicode="&#x2248;" horiz-adv-x="528" 
d="M29 374c2 106 52 175 143 175c41 0 78 -15 111 -29c26 -12 48 -21 67 -21c27 0 44 12 49 51h100c-2 -105 -52 -175 -143 -175c-41 0 -78 15 -110 29c-26 12 -49 21 -68 21c-26 0 -43 -11 -50 -51h-99zM29 157c2 106 52 175 143 175c41 0 78 -15 111 -29
c26 -11 48 -21 67 -21c27 0 44 12 49 52h100c-2 -105 -52 -176 -143 -176c-41 0 -78 16 -110 30c-26 11 -49 20 -68 20c-26 0 -43 -10 -50 -51h-99z" />
    <glyph glyph-name="logicalnot" unicode="&#xac;" horiz-adv-x="528" 
d="M29 452h470v-296h-144v165h-326v131z" />
    <glyph glyph-name="infinity" unicode="&#x221e;" horiz-adv-x="836" 
d="M613 561c118 0 194 -86 194 -205s-76 -205 -194 -205c-74 0 -141 39 -195 112c-54 -73 -121 -112 -195 -112c-118 0 -194 86 -194 205s76 205 194 205c74 0 141 -39 195 -113c54 74 121 113 195 113zM231 263c42 0 83 34 120 93c-37 59 -79 93 -120 93
c-46 0 -78 -37 -78 -93s32 -93 78 -93zM606 263c45 0 78 37 78 93s-33 93 -78 93c-42 0 -83 -34 -121 -93c37 -59 78 -93 121 -93z" />
    <glyph glyph-name="integral" unicode="&#x222b;" horiz-adv-x="422" 
d="M103 -202c-24 0 -51 3 -74 6v118c12 -2 25 -3 42 -3c44 0 62 19 62 54v574c0 92 49 171 186 171c24 0 51 -3 74 -6v-118c-12 2 -25 3 -41 3c-45 0 -63 -19 -63 -54v-574c0 -92 -48 -171 -186 -171z" />
    <glyph glyph-name="uni2126" unicode="&#x2126;" horiz-adv-x="789" 
d="M24 0v146h145v3c-90 63 -138 149 -138 261c0 190 137 318 361 318c227 0 366 -128 366 -318c0 -112 -48 -198 -137 -261v-3h144v-146h-329v130c99 46 150 136 150 245c0 141 -77 206 -190 206c-114 0 -193 -65 -193 -206c0 -109 53 -199 151 -245v-130h-330z" />
    <glyph glyph-name="uni2206" unicode="&#x2206;" horiz-adv-x="692" 
d="M443 712l224 -571v-141h-642v141l217 571h201zM283 387l-86 -239h293l-88 239c-19 52 -41 116 -60 177c-19 -61 -40 -125 -59 -177z" />
    <glyph glyph-name="product" unicode="&#x220f;" horiz-adv-x="732" 
d="M54 712h624v-908h-169v759h-286v-759h-169v908z" />
    <glyph glyph-name="summation" unicode="&#x2211;" horiz-adv-x="627" 
d="M451 -48h151v-149h-577v130l281 325l-281 325v130h567v-149h-141c-69 0 -138 0 -206 2l131 -151l90 -108v-98l-90 -108l-131 -151c68 2 137 2 206 2z" />
    <glyph glyph-name="radical" unicode="&#x221a;" horiz-adv-x="737" 
d="M567 712h169l-289 -908h-204l-131 380h-101v149h219l27 -87c26 -92 56 -190 85 -286c27 96 56 194 83 287z" />
    <glyph glyph-name="uni00B5" unicode="&#xb5;" horiz-adv-x="584" 
d="M382 516h157v-516h-153v72c-37 -53 -89 -84 -156 -84c-11 0 -21 1 -31 4v-188h-154v712h157v-307c0 -57 25 -88 83 -88c48 0 97 31 97 107v288z" />
    <glyph glyph-name="partialdiff" unicode="&#x2202;" horiz-adv-x="657" 
d="M389 728c144 0 232 -83 232 -239c0 -183 -58 -358 -175 -446c-50 -37 -112 -59 -183 -59c-130 0 -233 79 -233 216c0 147 117 270 271 270c75 0 130 -28 158 -78c6 34 10 68 10 95c0 85 -35 118 -94 118c-50 0 -90 -24 -112 -79h-156c42 129 145 202 282 202zM276 115
c74 0 133 71 133 149c0 49 -29 85 -83 85c-73 0 -134 -69 -134 -149c0 -49 29 -85 84 -85z" />
    <glyph glyph-name="perthousand" unicode="&#x2030;" horiz-adv-x="1305" 
d="M198 290c-119 0 -178 77 -178 215c0 139 59 216 178 216s178 -77 178 -216c0 -138 -59 -215 -178 -215zM215 0l380 712h99l-380 -712h-99zM198 381c42 0 65 29 65 124c0 96 -23 125 -65 125c-41 0 -65 -28 -65 -125c0 -96 24 -124 65 -124zM711 -9
c-120 0 -179 77 -179 215c0 139 59 216 179 216c118 0 178 -77 178 -216c0 -138 -60 -215 -178 -215zM1107 -9c-120 0 -178 77 -178 215c0 139 58 216 178 216c119 0 178 -77 178 -216c0 -138 -59 -215 -178 -215zM711 82c41 0 64 29 64 124c0 96 -23 125 -64 125
c-42 0 -66 -28 -66 -125c0 -96 24 -124 66 -124zM1107 82c41 0 65 29 65 124c0 96 -24 125 -65 125s-65 -28 -65 -125c0 -96 24 -124 65 -124z" />
    <glyph glyph-name="equal.subs" unicode="&#x208c;" horiz-adv-x="317" 
d="M16 33v85h285v-85h-285zM16 -97v85h285v-85h-285z" />
    <glyph glyph-name="equal.sups" horiz-adv-x="317" 
d="M16 757v85h285v-85h-285zM16 627v85h285v-85h-285z" />
    <glyph glyph-name="minus.subs" unicode="&#x208b;" horiz-adv-x="317" 
d="M16 -33v86h285v-86h-285z" />
    <glyph glyph-name="minus.sups" unicode="&#x207b;" horiz-adv-x="317" 
d="M16 691v86h285v-86h-285z" />
    <glyph glyph-name="plus.subs" unicode="&#x208a;" horiz-adv-x="317" 
d="M301 53v-86h-95v-96h-95v96h-95v86h95v96h95v-96h95z" />
    <glyph glyph-name="plus.sups" unicode="&#x207a;" horiz-adv-x="317" 
d="M301 777v-86h-95v-96h-95v96h-95v86h95v96h95v-96h95z" />
    <glyph glyph-name="uni2219.ss01" horiz-adv-x="527" 
d="M265 243c-67 0 -120 51 -120 117c0 64 53 115 120 115c63 0 116 -51 116 -115c0 -66 -53 -117 -116 -117z" />
    <glyph glyph-name="divide.ss01" horiz-adv-x="528" 
d="M264 477c-42 0 -76 34 -76 76s34 75 76 75s76 -33 76 -75s-34 -76 -76 -76zM29 291v131h470v-131h-470zM264 89c-42 0 -76 34 -76 75c0 43 34 76 76 76s76 -33 76 -76c0 -41 -34 -75 -76 -75z" />
    <glyph glyph-name="plus.tf" horiz-adv-x="677" 
d="M574 422v-131h-163v-165h-143v165h-164v131h164v165h143v-165h163z" />
    <glyph glyph-name="minus.tf" horiz-adv-x="677" 
d="M104 291v131h470v-131h-470z" />
    <glyph glyph-name="arrowup" unicode="&#x2191;" horiz-adv-x="956" 
d="M478 728l356 -269v-190l-165 124c-41 31 -77 59 -111 87v-480h-162v479c-34 -28 -69 -56 -109 -86l-165 -124v190z" />
    <glyph glyph-name="uni2197" unicode="&#x2197;" horiz-adv-x="956" 
d="M276 674h529v-517l-153 -141v250c0 50 0 100 2 150l-392 -380l-106 115l389 378c-50 -2 -100 -2 -151 -2h-259z" />
    <glyph glyph-name="arrowright" unicode="&#x2192;" horiz-adv-x="956" 
d="M573 712l269 -356l-269 -356h-198l124 165c33 44 61 81 92 118h-477v146h477c-30 36 -59 74 -92 118l-124 165h198z" />
    <glyph glyph-name="uni2198" unicode="&#x2198;" horiz-adv-x="956" 
d="M652 699l153 -141v-516h-529l-141 146h259c51 0 101 0 151 -2l-389 378l106 115l392 -380c-2 50 -2 100 -2 151v249z" />
    <glyph glyph-name="arrowdown" unicode="&#x2193;" horiz-adv-x="956" 
d="M669 319l165 124v-190l-356 -269l-356 269v190l165 -124c40 -30 75 -58 109 -86v479h162v-480c34 28 70 56 111 87z" />
    <glyph glyph-name="uni2199" unicode="&#x2199;" horiz-adv-x="956" 
d="M562 187h259l-141 -146h-529v517l153 140v-249c0 -50 0 -100 -2 -151l392 380l106 -114l-390 -379c51 2 101 2 152 2z" />
    <glyph glyph-name="arrowleft" unicode="&#x2190;" horiz-adv-x="956" 
d="M842 429v-146h-477c31 -37 59 -74 92 -118l124 -165h-198l-269 356l269 356h198l-124 -165c-33 -44 -62 -82 -92 -118h477z" />
    <glyph glyph-name="uni2196" unicode="&#x2196;" horiz-adv-x="956" 
d="M562 527c-51 0 -101 0 -151 2l389 -378l-106 -115l-392 380c2 -50 2 -100 2 -150v-250l-153 141v517h529l141 -147h-259z" />
    <glyph glyph-name="arrowboth" unicode="&#x2194;" horiz-adv-x="956" 
d="M723 712l233 -356l-233 -356h-175l107 162c28 42 54 83 82 123h-518c28 -40 54 -81 81 -123l105 -162h-171l-234 356l233 356h174l-107 -164c-26 -41 -52 -80 -79 -119h514c-27 38 -53 76 -79 117l-107 166h174z" />
    <glyph glyph-name="arrowupdn" unicode="&#x2195;" horiz-adv-x="956" 
d="M558 90c34 28 70 56 111 87l165 124v-190l-356 -269l-356 269v190l165 -124c40 -30 75 -58 109 -86v530c-34 -28 -69 -56 -109 -86l-165 -124v190l356 269l356 -269v-190l-165 124c-41 31 -77 59 -111 87v-532z" />
    <glyph glyph-name="uni25CF" unicode="&#x25cf;" horiz-adv-x="956" 
d="M478 -107c-268 0 -478 205 -478 463s210 463 478 463s478 -205 478 -463s-210 -463 -478 -463z" />
    <glyph glyph-name="circle" unicode="&#x25cb;" horiz-adv-x="956" 
d="M478 -107c-268 0 -478 205 -478 463s210 463 478 463s478 -205 478 -463s-210 -463 -478 -463zM479 13c197 0 348 149 348 343s-151 343 -348 343s-349 -149 -349 -343s152 -343 349 -343z" />
    <glyph glyph-name="lozenge" unicode="&#x25ca;" horiz-adv-x="615" 
d="M394 712l203 -356l-203 -356h-174l-202 356l202 356h174zM307 136l124 220l-124 220l-124 -220z" />
    <glyph glyph-name="filledbox" unicode="&#x25a0;" horiz-adv-x="956" 
d="M24 -88v888h908v-888h-908z" />
    <glyph glyph-name="uni25A1" unicode="&#x25a1;" horiz-adv-x="956" 
d="M24 -88v888h908v-888h-908zM154 29h648v654h-648v-654z" />
    <glyph glyph-name="uniF8FF" unicode="&#xf8ff;" horiz-adv-x="825" 
d="M361 620c0 24 -11 38 -37 38c-22 0 -43 -13 -43 -47v-128h-69v316h69v-116c15 20 38 35 69 35c46 0 80 -28 80 -85v-150h-69v137zM765 799v-316h-70v316h70zM563 479c-71 0 -118 46 -118 120c0 72 46 120 118 120c71 0 118 -50 118 -127v-14h-171c6 -33 26 -49 53 -49
c23 0 38 10 47 26h65c-12 -48 -56 -76 -112 -76zM562 667c-25 0 -45 -14 -51 -45h102c-5 28 -23 45 -51 45zM765 355v-14h-171c5 -33 25 -49 53 -49c23 0 38 10 46 26h66c-12 -48 -57 -76 -113 -76c-70 0 -118 46 -118 120c0 72 46 120 118 120c71 0 119 -50 119 -127z
M461 243h-82l-82 229h72l24 -76c12 -38 20 -64 28 -94c8 30 16 56 28 94l24 76h70zM645 431c-25 0 -45 -14 -50 -46h101c-4 29 -22 46 -51 46zM218 314h67v-59h-67v59zM158 297v-69h44v-50h-44v-107c0 -17 8 -20 26 -20h18v-52c-11 -1 -22 -2 -32 -2c-58 0 -82 19 -82 66
v115h-34v50h34v69h70zM418 50c23 0 40 12 44 39h69c-5 -59 -50 -95 -113 -95c-72 0 -118 47 -118 120c0 72 46 120 118 120c62 0 106 -36 112 -92h-69c-5 25 -21 35 -43 35c-30 0 -48 -19 -48 -63c0 -45 18 -64 48 -64zM770 0h-71c-2 7 -4 15 -4 25c-15 -19 -38 -30 -74 -30
c-47 0 -82 25 -82 71c0 39 23 65 89 71l35 3c24 2 31 7 31 21c0 15 -7 24 -35 24c-27 0 -38 -7 -41 -30h-68c5 51 36 79 109 79c72 0 103 -27 103 -70v-118c0 -17 3 -37 8 -46zM217 0v229h70v-229h-70zM642 42c28 0 52 12 52 48v18c-5 -6 -12 -8 -23 -10l-28 -4
c-24 -3 -33 -10 -33 -27c0 -16 11 -25 32 -25z" />
    <glyph glyph-name="paragraph" unicode="&#xb6;" horiz-adv-x="596" 
d="M243 0v363c-129 0 -219 60 -219 172c0 121 85 177 236 177h282v-712h-118v602h-63v-602h-118z" />
    <glyph glyph-name="section" unicode="&#xa7;" horiz-adv-x="607" 
d="M589 225c0 -67 -41 -117 -116 -147c35 -31 56 -65 56 -113c0 -110 -79 -170 -225 -170c-161 0 -222 76 -226 177h145c2 -57 39 -73 83 -73c47 0 70 22 70 56c0 33 -27 50 -71 76l-115 67c-101 59 -171 110 -171 200c0 67 41 117 116 147c-35 31 -56 65 -56 113
c0 110 80 170 225 170c161 0 222 -76 226 -177h-145c-2 56 -39 73 -83 73c-47 0 -70 -22 -70 -56c0 -33 27 -51 71 -76l115 -67c101 -59 171 -110 171 -200zM366 148l3 -2c46 18 67 46 67 76c0 36 -29 57 -78 86l-116 67l-3 2c-46 -18 -67 -46 -67 -77c0 -35 29 -56 78 -85z
" />
    <glyph glyph-name="copyright" unicode="&#xa9;" horiz-adv-x="809" 
d="M404 -16c-218 0 -380 165 -380 372c0 208 162 372 380 372s381 -164 381 -372c0 -207 -163 -372 -381 -372zM405 89c156 0 267 116 267 267s-111 267 -267 267s-268 -116 -268 -267s112 -267 268 -267zM407 154c-118 0 -194 79 -194 202s76 202 194 202
c107 0 177 -62 185 -158h-117c-5 40 -30 61 -68 61c-50 0 -76 -35 -76 -105s26 -105 76 -105c41 0 68 23 71 67h116c-6 -99 -79 -164 -187 -164z" />
    <glyph glyph-name="registered" unicode="&#xae;" horiz-adv-x="561" 
d="M281 728c147 0 262 -112 262 -255c0 -141 -115 -253 -262 -253c-148 0 -263 112 -263 253c0 143 115 255 263 255zM281 277c113 0 200 84 200 196c0 113 -87 198 -200 198c-114 0 -201 -85 -201 -198c0 -112 87 -196 201 -196zM389 414l2 -35c1 -16 5 -25 11 -32h-72
c-5 9 -7 19 -8 32l-2 27c-2 25 -9 32 -31 32h-43v-91h-68v257h121c60 0 95 -28 95 -76c0 -25 -12 -46 -36 -58c25 -11 30 -32 31 -56zM246 491h46c20 0 31 11 31 28c0 19 -11 28 -32 28h-45v-56z" />
    <glyph glyph-name="uni2117" unicode="&#x2117;" horiz-adv-x="797" 
d="M398 728c218 0 381 -164 381 -372c0 -207 -163 -372 -381 -372s-380 165 -380 372c0 208 162 372 380 372zM399 89c156 0 267 116 267 267s-111 267 -267 267s-268 -116 -268 -267s112 -267 268 -267zM430 546c93 0 152 -58 152 -138c0 -81 -60 -139 -152 -139h-60v-104
h-104v381h164zM425 361c36 0 53 21 53 47c0 25 -16 46 -53 46h-55v-93h55z" />
    <glyph glyph-name="trademark" unicode="&#x2122;" horiz-adv-x="579" 
d="M21 649v63h220v-63h-75v-194h-69v194h-76zM460 712h97v-257h-66v77c0 27 0 54 1 81l-6 -19l-43 -139h-55l-43 139l-6 20c1 -28 1 -54 1 -82v-77h-66v257h97l33 -110c4 -13 8 -27 11 -41l12 43z" />
    <glyph glyph-name="uni2105" unicode="&#x2105;" horiz-adv-x="1011" 
d="M230 295c-123 0 -210 81 -210 215s82 216 210 216c98 0 183 -52 199 -161h-110c-12 45 -47 67 -89 67c-61 0 -96 -44 -96 -122c0 -77 35 -120 96 -120c40 0 79 22 89 69h110c-14 -108 -98 -164 -199 -164zM259 0l380 712h100l-380 -712h-100zM775 -9
c-127 0 -215 84 -215 215c0 132 88 216 215 216c128 0 216 -84 216 -216c0 -131 -88 -215 -216 -215zM775 87c61 0 102 42 102 119s-41 120 -102 120c-60 0 -101 -43 -101 -120s41 -119 101 -119z" />
    <glyph glyph-name="degree" unicode="&#xb0;" horiz-adv-x="354" 
d="M177 419c-91 0 -159 68 -159 151c0 85 68 151 159 151c90 0 159 -66 159 -151c0 -83 -69 -151 -159 -151zM177 507c36 0 63 27 63 63s-27 62 -63 62c-35 0 -63 -26 -63 -62s28 -63 63 -63z" />
    <glyph glyph-name="brokenbar" unicode="&#xa6;" horiz-adv-x="237" 
d="M54 398v399h129v-399h-129zM54 -204v399h129v-399h-129z" />
    <glyph glyph-name="uni2113" unicode="&#x2113;" horiz-adv-x="498" 
d="M313 108c36 0 70 16 93 35l44 -78c-40 -42 -106 -73 -181 -73c-104 0 -163 71 -163 177v34c-24 -4 -50 -7 -76 -8l-16 81c33 2 63 6 92 12v233c0 131 63 207 187 207c102 0 160 -59 160 -179c0 -138 -67 -243 -193 -302v-67c0 -52 25 -72 53 -72zM260 522v-170
c59 44 92 108 92 191c0 43 -14 65 -42 65c-35 0 -50 -30 -50 -86z" />
    <glyph glyph-name="dagger" unicode="&#x2020;" horiz-adv-x="607" 
d="M594 516v-143h-206v-519h-169v519h-206v143h206v196h169v-196h206z" />
    <glyph glyph-name="daggerdbl" unicode="&#x2021;" horiz-adv-x="607" 
d="M594 373h-206v-180h206v-143h-206v-196h-169v196h-206v143h206v180h-206v143h206v196h169v-196h206v-143z" />
    <glyph glyph-name="uni2116" unicode="&#x2116;" horiz-adv-x="1164" 
d="M938 723c122 0 207 -83 207 -211s-85 -211 -207 -211c-124 0 -209 83 -209 211s85 211 209 211zM517 563v149h161v-712h-182l-174 284c-40 66 -78 129 -111 194c3 -116 4 -220 4 -329v-149h-161v712h182l174 -284c34 -56 78 -130 111 -196c-3 117 -4 221 -4 331zM938 419
c47 0 77 34 77 93c0 58 -30 93 -77 93c-48 0 -79 -35 -79 -93c0 -59 31 -93 79 -93z" />
    <glyph glyph-name="estimated" unicode="&#x212e;" horiz-adv-x="911" 
d="M456 728c256 0 404 -177 404 -382h-646c-8 0 -14 -6 -14 -13v-176c0 -22 3 -35 16 -47c61 -60 141 -96 240 -96c103 0 197 48 252 115h73c-47 -66 -153 -142 -325 -142c-246 0 -406 155 -406 369c0 209 153 372 406 372zM456 700c-99 0 -179 -37 -240 -98
c-13 -12 -16 -24 -16 -44v-176c0 -8 6 -13 14 -13h481c8 0 14 5 14 13v176c0 20 -3 32 -16 44c-72 71 -156 98 -237 98z" />
    <glyph glyph-name="cent.dnom" horiz-adv-x="337" 
d="M320 174c-6 -72 -59 -116 -130 -122v-60h-36v60c-82 8 -135 67 -135 156c0 88 52 147 135 155v59h36v-59c72 -6 121 -49 128 -118h-91c-5 25 -19 37 -37 41v-157c19 5 34 18 38 45h92zM113 208c0 -47 16 -71 41 -78v155c-25 -7 -41 -31 -41 -77z" />
    <glyph glyph-name="dollar.dnom" horiz-adv-x="380" 
d="M368 123c0 -87 -64 -127 -159 -132v-58h-36v59c-104 5 -158 58 -160 146h97c2 -50 26 -64 63 -67v95l-7 1c-89 15 -144 49 -144 130c0 72 49 122 151 125v58h36v-59c97 -7 144 -57 148 -136h-96c-2 32 -15 51 -52 56v-89l18 -3c95 -18 141 -52 141 -126zM122 303
c0 -24 12 -35 51 -44v84c-37 -2 -51 -17 -51 -40zM209 71c39 2 58 16 58 44c0 27 -18 37 -58 45v-89z" />
    <glyph glyph-name="Euro.dnom" horiz-adv-x="423" 
d="M319 147h97c-14 -83 -68 -157 -181 -157c-98 0 -167 60 -185 160h-45v39h40v18c0 7 0 13 1 20h-41v40h46c19 96 85 155 183 155c117 0 165 -75 181 -148h-99c-12 39 -34 64 -82 64c-45 0 -71 -25 -82 -71h116v-40h-122v-19v-19h122v-39h-117c11 -48 37 -76 83 -76
c50 0 75 25 85 73z" />
    <glyph glyph-name="plus.dnom" horiz-adv-x="317" 
d="M301 249v-86h-95v-96h-95v96h-95v86h95v96h95v-96h95z" />
    <glyph glyph-name="minus.dnom" horiz-adv-x="317" 
d="M16 163v86h285v-86h-285z" />
    <glyph glyph-name="equal.dnom" horiz-adv-x="317" 
d="M16 228v85h285v-85h-285zM16 98v85h285v-85h-285z" />
    <glyph glyph-name="cent.numr" horiz-adv-x="337" 
d="M320 471c-6 -72 -59 -116 -130 -122v-60h-36v60c-82 8 -135 67 -135 156c0 88 52 147 135 155v59h36v-59c72 -6 121 -49 128 -118h-91c-5 25 -19 37 -37 41v-157c19 5 34 18 38 45h92zM113 505c0 -47 16 -71 41 -78v155c-25 -7 -41 -31 -41 -77z" />
    <glyph glyph-name="dollar.numr" horiz-adv-x="380" 
d="M368 422c0 -87 -64 -127 -159 -132v-58h-36v59c-104 5 -158 58 -160 146h97c2 -50 26 -64 63 -67v95l-7 1c-89 15 -144 49 -144 130c0 72 49 122 151 125v58h36v-59c97 -7 144 -57 148 -136h-96c-2 32 -15 51 -52 56v-89l18 -3c95 -18 141 -52 141 -126zM122 602
c0 -24 12 -35 51 -44v84c-37 -2 -51 -17 -51 -40zM209 370c39 2 58 16 58 44c0 27 -18 37 -58 45v-89z" />
    <glyph glyph-name="Euro.numr" horiz-adv-x="423" 
d="M319 446h97c-14 -83 -68 -157 -181 -157c-98 0 -167 60 -185 160h-45v39h40v18c0 7 0 13 1 20h-41v40h46c19 96 85 155 183 155c117 0 165 -75 181 -148h-99c-12 39 -34 64 -82 64c-45 0 -71 -25 -82 -71h116v-40h-122v-19v-19h122v-39h-117c11 -48 37 -76 83 -76
c50 0 75 25 85 73z" />
    <glyph glyph-name="plus.numr" horiz-adv-x="317" 
d="M301 548v-86h-95v-96h-95v96h-95v86h95v96h95v-96h95z" />
    <glyph glyph-name="minus.numr" horiz-adv-x="317" 
d="M16 462v86h285v-86h-285z" />
    <glyph glyph-name="equal.numr" horiz-adv-x="317" 
d="M16 528v85h285v-85h-285zM16 398v85h285v-85h-285z" />
    </font>
</defs>
</svg>
